generated from DragonRatTiger/Custom-Charts
760 lines
6.7 KiB
Plaintext
760 lines
6.7 KiB
Plaintext
TITLE:Heart
|
|
TITLEJA:心臓
|
|
SUBTITLE:--TOOBOE
|
|
SUBTITLEJA:TOOBOE
|
|
BPM:180
|
|
WAVE:Heart.ogg
|
|
OFFSET:-0.638
|
|
DEMOSTART:49.971
|
|
BGMOVIE:Heart.mp4
|
|
MAKER:Colin
|
|
PREIMAGE:Heart.jpg
|
|
|
|
COURSE:Oni
|
|
LEVEL:7
|
|
BALLOON:
|
|
SCOREINIT:
|
|
SCOREDIFF:
|
|
NOTESDESIGNER3:Colin
|
|
|
|
|
|
#START
|
|
30020020,
|
|
30020020,
|
|
30020020,
|
|
30023030,
|
|
#GOGOSTART
|
|
1011202210201012,
|
|
1011202210201012,
|
|
1011202210201012,
|
|
1011202210201012,
|
|
1011202210201012,
|
|
1011202210201012,
|
|
1011202210201012,
|
|
1011202210201012,
|
|
#GOGOEND
|
|
11210121,
|
|
0010205008102010,
|
|
1011202010102011,
|
|
11250080,
|
|
11210121,
|
|
01250080,
|
|
01212211,
|
|
0010205000802011,
|
|
11210121,
|
|
0010201000221010,
|
|
0011202010112010,
|
|
01250820,
|
|
1210201000102010,
|
|
01250820,
|
|
1010201011221020,
|
|
1011205000802022,
|
|
10021121,
|
|
1022201120001011,
|
|
2000001020121011,
|
|
2010201210112122,
|
|
11212011,
|
|
2010102010212010,
|
|
20112011,
|
|
3333,
|
|
1012101210121000,
|
|
#GOGOSTART
|
|
1011201000102022,
|
|
1010201210102020,
|
|
0010201000112210,
|
|
1121112210202012,
|
|
1010102000112030,
|
|
03360802,
|
|
0011201000102000,
|
|
1011201010112222,
|
|
1011201000102022,
|
|
1010201210102020,
|
|
0010201000112210,
|
|
1121112210202012,
|
|
1010102000112030,
|
|
03360802,
|
|
0011201000102000,
|
|
1011201010112210,
|
|
#GOGOEND
|
|
00202120,
|
|
#GOGOSTART
|
|
1011202210201012,
|
|
1011202210201012,
|
|
1011202210201012,
|
|
1011202210201012,
|
|
1011202210201012,
|
|
1011202210201012,
|
|
1011202210201012,
|
|
1011202210201012,
|
|
#GOGOEND
|
|
10010100,
|
|
1021201000102000,
|
|
1000201000112000,
|
|
1000221000102000,
|
|
1000001020101211,
|
|
1000201000112000,
|
|
1010201020112010,
|
|
1011201020202222,
|
|
11210121,
|
|
0010201000221010,
|
|
0011202010112010,
|
|
0010201120102000,
|
|
1210201000102010,
|
|
01250820,
|
|
1010201011221020,
|
|
1011205000802022,
|
|
10021121,
|
|
1022201120001011,
|
|
2000001020121011,
|
|
2010201210112122,
|
|
11212011,
|
|
2010102010212010,
|
|
20112011,
|
|
3333,
|
|
1122112211221120,
|
|
#GOGOSTART
|
|
1011201000102022,
|
|
1010201210102020,
|
|
0010201000112210,
|
|
1121112210202012,
|
|
1010102000112030,
|
|
33360802,
|
|
0011201000102000,
|
|
1011201010112222,
|
|
1011201000102022,
|
|
1010201210102020,
|
|
0010201000112210,
|
|
1121112210202012,
|
|
1010102000112030,
|
|
03360802,
|
|
0011201000102000,
|
|
1011201010112210,
|
|
#GOGOEND
|
|
0,
|
|
11111111,
|
|
11111111,
|
|
#GOGOSTART
|
|
30443340,
|
|
30443340,
|
|
30443340,
|
|
30443344,
|
|
30443340,
|
|
30443340,
|
|
30443340,
|
|
30443333,
|
|
32323230,
|
|
32323230,
|
|
32323230,
|
|
32323232,
|
|
32323230,
|
|
32323230,
|
|
32323230,
|
|
30303120,
|
|
#GOGOSTART
|
|
1011201000102022,
|
|
1010201210102020,
|
|
0010201000112210,
|
|
1121112210202012,
|
|
1010102000112030,
|
|
03360802,
|
|
0011201000102000,
|
|
1011201010112222,
|
|
1011201000102022,
|
|
1010201210102020,
|
|
0010201000112210,
|
|
1121112210202012,
|
|
1010102000112030,
|
|
03360802,
|
|
0011201000102000,
|
|
1011201010112211,
|
|
1022102011212022,
|
|
1111202210112210,
|
|
1011201121112012,
|
|
1011201212221020,
|
|
11211121,
|
|
1011205000802010,
|
|
0011201000112022,
|
|
1021201210112222,
|
|
1011201000102022,
|
|
1010201210102020,
|
|
0010201000112210,
|
|
1121112210202012,
|
|
1010102000112030,
|
|
03360802,
|
|
0011201000102000,
|
|
1011201010112210,
|
|
#GOGOEND
|
|
0,
|
|
33333333,
|
|
#GOGOSTART
|
|
1011202210201012,
|
|
1011202210201012,
|
|
1011202210201012,
|
|
1011202210201012,
|
|
1011202210201012,
|
|
1011202210201012,
|
|
1011202210201012,
|
|
1011202210201012,
|
|
10100100,
|
|
0033,
|
|
#GOGOEND
|
|
4,
|
|
#END
|
|
|
|
|
|
|
|
COURSE:Hard
|
|
LEVEL:6
|
|
BALLOON:15
|
|
SCOREINIT:
|
|
SCOREDIFF:
|
|
NOTESDESIGNER2:Colin
|
|
|
|
#START
|
|
30020020,
|
|
30020020,
|
|
30020020,
|
|
30023030,
|
|
#GOGOSTART
|
|
11201201,
|
|
01201212,
|
|
11201201,
|
|
01201212,
|
|
11201201,
|
|
01201212,
|
|
11201201,
|
|
01201212,
|
|
#GOGOEND
|
|
10010121,
|
|
0010205008102010,
|
|
10201121,
|
|
01250080,
|
|
10210121,
|
|
01250080,
|
|
01211011,
|
|
01250840,
|
|
11210121,
|
|
01210211,
|
|
01221021,
|
|
01250820,
|
|
11210121,
|
|
01250820,
|
|
01211012,
|
|
11150822,
|
|
10020120,
|
|
12201011,
|
|
00012001,
|
|
2010201000111000,
|
|
11012011,
|
|
20121021,
|
|
20112011,
|
|
3333,
|
|
2222,
|
|
#GOGOSTART
|
|
11210125,
|
|
00008122,
|
|
01210121,
|
|
02110220,
|
|
11120103,
|
|
03360802,
|
|
01210120,
|
|
11201120,
|
|
11210120,
|
|
11210121,
|
|
01210121,
|
|
02120221,
|
|
10120123,
|
|
03360802,
|
|
01210120,
|
|
11211121,
|
|
#GOGOEND
|
|
00202120,
|
|
#GOGOSTART
|
|
11201201,
|
|
01201212,
|
|
11201201,
|
|
01201212,
|
|
11201201,
|
|
01201212,
|
|
11201201,
|
|
01201212,
|
|
#GOGOEND
|
|
10010100,
|
|
10210120,
|
|
10210120,
|
|
10210120,
|
|
1000001020100011,
|
|
10210120,
|
|
10212120,
|
|
11210021,
|
|
10210121,
|
|
01210211,
|
|
01201121,
|
|
01210120,
|
|
11210121,
|
|
01250820,
|
|
10210212,
|
|
01250822,
|
|
10021021,
|
|
02212011,
|
|
20012110,
|
|
21211122,
|
|
10212011,
|
|
21121201,
|
|
20112011,
|
|
3333,
|
|
70000008,
|
|
#GOGOSTART
|
|
11210125,
|
|
00008122,
|
|
01210121,
|
|
02110220,
|
|
11120103,
|
|
33360802,
|
|
01210120,
|
|
11201120,
|
|
11210120,
|
|
11210121,
|
|
01210121,
|
|
02120221,
|
|
10120123,
|
|
03360802,
|
|
01210120,
|
|
11211121,
|
|
#GOGOEND
|
|
0,
|
|
11111111,
|
|
11111111,
|
|
#GOGOSTART
|
|
30403340,
|
|
30403340,
|
|
30403340,
|
|
30403344,
|
|
30403340,
|
|
30403340,
|
|
30403340,
|
|
30403333,
|
|
32303230,
|
|
32303230,
|
|
32303230,
|
|
32303230,
|
|
32303230,
|
|
32303230,
|
|
32303230,
|
|
30303120,
|
|
#GOGOEND
|
|
#GOGOSTART
|
|
11210125,
|
|
00008122,
|
|
01210121,
|
|
02110220,
|
|
11120103,
|
|
03360802,
|
|
01210120,
|
|
11201120,
|
|
11210120,
|
|
11210121,
|
|
01210121,
|
|
02120221,
|
|
10120123,
|
|
03360802,
|
|
01210120,
|
|
11211121,
|
|
10101212,
|
|
10101120,
|
|
10101120,
|
|
10111111,
|
|
10210121,
|
|
11120002,
|
|
00011120,
|
|
1111,
|
|
11210125,
|
|
00008122,
|
|
01210121,
|
|
02110220,
|
|
11120103,
|
|
03360802,
|
|
01210120,
|
|
11201120,
|
|
#GOGOEND
|
|
0,
|
|
50000008,
|
|
#GOGOSTART
|
|
11201201,
|
|
01201212,
|
|
11201201,
|
|
01201212,
|
|
11201201,
|
|
01201212,
|
|
11201201,
|
|
01201212,
|
|
1,
|
|
0033,
|
|
#GOGOEND
|
|
4,
|
|
#END
|
|
|
|
|
|
COURSE:Normal
|
|
LEVEL:5
|
|
BALLOON:
|
|
SCOREINIT:
|
|
SCOREDIFF:
|
|
NOTESDESIGNER1:Colin
|
|
|
|
#START
|
|
|
|
68,
|
|
68,
|
|
68,
|
|
60083030,
|
|
1110,
|
|
1110,
|
|
1110,
|
|
1112,
|
|
1110,
|
|
1110,
|
|
1110,
|
|
1112,
|
|
1,
|
|
1,
|
|
1,
|
|
1,
|
|
1,
|
|
1,
|
|
1,
|
|
1012,
|
|
1,
|
|
1,
|
|
1,
|
|
1,
|
|
1,
|
|
1,
|
|
1,
|
|
1012,
|
|
11,
|
|
11,
|
|
11,
|
|
11,
|
|
1111,
|
|
1115,
|
|
08,
|
|
33,
|
|
50000008,
|
|
10210500,
|
|
00080102,
|
|
1202,
|
|
1111,
|
|
10210500,
|
|
00080102,
|
|
1202,
|
|
1111,
|
|
10210500,
|
|
00080102,
|
|
1202,
|
|
1111,
|
|
10210500,
|
|
00080102,
|
|
1202,
|
|
1111,
|
|
0,
|
|
1110,
|
|
1110,
|
|
1112,
|
|
1110,
|
|
1110,
|
|
1110,
|
|
1112,
|
|
1110,
|
|
1,
|
|
1,
|
|
1,
|
|
1,
|
|
1,
|
|
1,
|
|
1,
|
|
1,
|
|
1210,
|
|
1210,
|
|
1210,
|
|
1202,
|
|
1210,
|
|
1210,
|
|
1210,
|
|
1210,
|
|
1,
|
|
1,
|
|
1,
|
|
1,
|
|
1111,
|
|
1111,
|
|
1,
|
|
33,
|
|
50000008,
|
|
10210500,
|
|
00080102,
|
|
1202,
|
|
1111,
|
|
10210500,
|
|
00080102,
|
|
1202,
|
|
1111,
|
|
10210500,
|
|
00080102,
|
|
1202,
|
|
1111,
|
|
10210500,
|
|
00080102,
|
|
1202,
|
|
1111,
|
|
0,
|
|
5,
|
|
00000008,
|
|
34,
|
|
34,
|
|
34,
|
|
34,
|
|
3430,
|
|
3430,
|
|
34,
|
|
34,
|
|
3430,
|
|
3430,
|
|
3430,
|
|
3430,
|
|
3430,
|
|
3430,
|
|
4444,
|
|
4444,
|
|
10210500,
|
|
00080102,
|
|
1202,
|
|
1111,
|
|
10210500,
|
|
00080102,
|
|
1202,
|
|
1111,
|
|
10210500,
|
|
00080102,
|
|
1202,
|
|
1111,
|
|
10210500,
|
|
00080102,
|
|
1202,
|
|
1111,
|
|
10210500,
|
|
00080102,
|
|
1202,
|
|
1111,
|
|
10210500,
|
|
00080102,
|
|
1202,
|
|
1111,
|
|
10210500,
|
|
00080102,
|
|
1202,
|
|
1111,
|
|
10210500,
|
|
00080102,
|
|
1202,
|
|
1111,
|
|
0,
|
|
50000008,
|
|
1110,
|
|
1110,
|
|
1110,
|
|
1110,
|
|
1110,
|
|
1110,
|
|
1110,
|
|
1110,
|
|
1,
|
|
0033,
|
|
4,
|
|
#END
|
|
|
|
|
|
COURSE:Easy
|
|
LEVEL:3
|
|
BALLOON:
|
|
SCOREINIT:
|
|
SCOREDIFF:
|
|
NOTESDESIGNER0:Colin
|
|
|
|
|
|
#START
|
|
68,
|
|
68,
|
|
68,
|
|
60083030,
|
|
11,
|
|
11,
|
|
11,
|
|
11,
|
|
11,
|
|
11,
|
|
11,
|
|
11,
|
|
1,
|
|
1,
|
|
1,
|
|
1,
|
|
1,
|
|
1,
|
|
1,
|
|
1,
|
|
1,
|
|
1,
|
|
1,
|
|
1,
|
|
1,
|
|
1,
|
|
1,
|
|
11,
|
|
1,
|
|
1,
|
|
1,
|
|
1,
|
|
11,
|
|
1015,
|
|
08,
|
|
33,
|
|
50000008,
|
|
10010500,
|
|
00080100,
|
|
1202,
|
|
11,
|
|
10010500,
|
|
00080100,
|
|
1202,
|
|
11,
|
|
10010500,
|
|
00080100,
|
|
1202,
|
|
11,
|
|
10010500,
|
|
00080100,
|
|
1202,
|
|
1011,
|
|
0,
|
|
11,
|
|
11,
|
|
11,
|
|
11,
|
|
11,
|
|
11,
|
|
11,
|
|
11,
|
|
1,
|
|
1,
|
|
1,
|
|
1,
|
|
1,
|
|
1,
|
|
1,
|
|
1,
|
|
2,
|
|
2,
|
|
2,
|
|
2,
|
|
2,
|
|
2,
|
|
2,
|
|
2,
|
|
2,
|
|
1,
|
|
1,
|
|
1,
|
|
11,
|
|
11,
|
|
1,
|
|
33,
|
|
50000008,
|
|
10010500,
|
|
00080102,
|
|
0002,
|
|
11,
|
|
10010500,
|
|
00080100,
|
|
1202,
|
|
11,
|
|
10010500,
|
|
00080102,
|
|
1002,
|
|
11,
|
|
10010500,
|
|
00080100,
|
|
1202,
|
|
1011,
|
|
0,
|
|
5,
|
|
00000008,
|
|
34,
|
|
0,
|
|
34,
|
|
0,
|
|
3400,
|
|
3400,
|
|
34,
|
|
04,
|
|
3400,
|
|
3400,
|
|
3400,
|
|
3400,
|
|
3400,
|
|
3400,
|
|
44,
|
|
44,
|
|
10010500,
|
|
00080100,
|
|
1202,
|
|
11,
|
|
10010500,
|
|
00080100,
|
|
1202,
|
|
11,
|
|
10010500,
|
|
00080102,
|
|
1002,
|
|
11,
|
|
10210500,
|
|
00080102,
|
|
1002,
|
|
1011,
|
|
10210500,
|
|
00080102,
|
|
1202,
|
|
0101,
|
|
00210500,
|
|
00080100,
|
|
1202,
|
|
1111,
|
|
10200500,
|
|
00080100,
|
|
1202,
|
|
1100,
|
|
10010500,
|
|
00080102,
|
|
1002,
|
|
1111,
|
|
0,
|
|
50000008,
|
|
11,
|
|
11,
|
|
11,
|
|
11,
|
|
11,
|
|
11,
|
|
11,
|
|
11,
|
|
1,
|
|
0,
|
|
4,
|
|
#END
|
|
|
|
|
|
|
|
|
|
|
|
|