Files
Colins_Custom_Charts/01 Pop/Karma/Karma.tja
T
2025-06-11 19:53:16 -04:00

359 lines
4.1 KiB
Plaintext

TITLE:Karma
SUBTITLE:--Dareharu
TITLEJA:ヤンラ
SUBTITLEJA:月の一日
TITLEKO:염라
SUBTITLEKO:달의하루
PREIMAGE:Karma.png
BGMOVIE:Karma.mp4
WAVE:Karma.ogg
BPM:132
OFFSET:-0.843
DEMOSTART:60.843
MAKER:Colin
COURSE:Easy
LEVEL:3
SCOREINIT:
SCOREDIFF:
NOTESDESIGNER0:Colin
#START
,
#GOGOSTART
1010,
1110,
1010,
1110,
2020,
2220,
2020,
20002000200
#GOGOEND
00000,
1001000000000000,
1001000000000000,
1001000000000000,
1001000000000000,
2020,
2,
2020,
2,
1110,
1110,
1110,
2220,
2220,
2220,
1110,
1010,
2020,
2020,
2020,
2020,
2220,
2220,
10101005,
0008,
#GOGOSTART
3040,
30004006,
0008,
1001002000000000,
3040,
30004006,
0008,
1001002000000000,
1010,
1110,
1010,
1110,
2020,
2220,
2020,
2220,
1010,
1,
1110,
1,
2220,
2020,
1110,
1210,
1010,
#GOGOEND
2,
2,
2,
1010,
1110,
#GOGOSTART
20020000,
2020,
20020000,
20020000,
1010,
#GOGOEND
3,
3,
#END
COURSE:Normal
LEVEL:5
SCOREINIT:
SCOREDIFF:
NOTESDESIGNER1:Colin
#START
,
#GOGOSTART
1010,
10111010,
10001011,
1110,
20202022,
2220,
20002022,
20002000200
#GOGOEND
00000,
1001000000002000,
1001000000002000,
1001000000002000,
1001000000000000,
2022,
2022,
2020,
2022,
10101011,
1110,
10101011,
2220,
20202022,
2220,
10101011,
1110,
2022,
2020,
2022,
2020,
2220,
2220,
10101005,
0008,
#GOGOSTART
3141,
30004016,
0008,
1001002000100000,
3000100040010010,
3000100040010060,
0008,
1001002000200000,
10101011,
1110,
1110,
10111000,
2220,
20222020,
20002022,
2221,
1011,
1010,
10111010,
1020,
20222020,
2020,
10111010,
1210,
10101011,
#GOGOEND
2,
2020,
2,
1111,
1110,
#GOGOSTART
20220020,
20002022,
20020022,
20020020,
1010,
#GOGOEND
3,
3,
#END
COURSE:Hard
LEVEL:6
SCOREINIT:
SCOREDIFF:
NOTESDESIGNER2:Colin
#START
,
#GOGOSTART
10102222,
10102222,
1010101010010020,
2000201000102022,
20102222,
10102222,
1010101010010020,
20201010200
#GOGOEND
20000,
3003000000000000,
3003000000000000,
3003000000000000,
3003001020000000,
1001001020001000,
1001001020202220,
1001001020001000,
1001002220220220,
1002201000102000,
1002201000102000,
1002201000102000,
1002201000102022,
2002201000102000,
1002201000102000,
1000200202002000,
1111103000102000,
11211020,
1001001020002000,
1000102000101022,
0004004030030030,
3001002010002020,
2001002010001010,
1010202010020050,
0008,
#GOGOSTART
1010202020010000,
1010202020010050,
00000081,
2022001000200000,
1010202020010000,
1010202020010010,
50000081,
2022001000201010,
1002001000100000,
1002001000100000,
1002001000100000,
22222225,
0080,
1002001001000000,
1002001000100000,
22222221,
1002001000200000,
1002001000102220,
1011011020220020,
3003003000000000,
2022020202020200,
1002010200222000,
1002201110102000,
2002002000102000,
1212,
#GOGOEND
3,
2,
2,
1002001000102000,
3003003000300000,
#GOGOSTART
2001002000202010,
02000111,
2002002000101020,
02010122,
1000100110202020,
#GOGOEND
1000002020220020,
3,
#END
COURSE:Oni
LEVEL:8
SCOREINIT:
SCOREDIFF:
NOTESDESIGNER3:Colin
#START
0000000012012010,
#GOGOSTART
2212122120202020,
2212112120202010,
2020101020120120,
1020102010212022,
2212111120102020,
2212112120202010,
2010101020120120,
20201210400
#GOGOEND
30000,
1001222010210110,
1001102220210120,
1001102020201020,
2001001220000000,
1001202120220210,
1021202020220122,
100000200100200020001000100010001000100020002000,
1002002220121120,
1001221220220102,
1001112210210101,
1001202010202020,
2001102212012212,
1001201202012010,
1011201020101011,
1011201202012020,
1221021001102211,
1022002010102020,
1012022010102010,
1001202010112022,
2012011010211120,
1022002010102010,
2012012010101010,
2010202010102012,
20000020000020001020222220202020,
#GOGOSTART
1020102012012020,
1022120211012022,
1012012011012022,
1022021010222222,
1020102012012022,
1020112012012010,
1012012112012021,
2022012002202222,
1011201211012011,
1011201211012020,
1011201211012022,
2012112022201022,
1011201211012011,
1011201211012022,
1011201211012120,
1012202010212022,
1012022010202121,
2012022010101221,
2022022020110121,
2022011020202222,
1112020202020202,
1222020210222220,
1222201111212101,
1012112011202222,
101010100000101010100000100200200000100200100200,
#GOGOEND
1,
2010102010020000,
1020102010010020,
3002012011202222,
1012012010212222,
#GOGOSTART
1021012012112010,
1012022212202020,
1012022012112021,
2021012011212022,
1011201120122020,
#GOGOEND
3000002010220020,
#SCROLL 2
3,
#END