generated from DragonRatTiger/Custom-Charts
296 lines
3.3 KiB
Plaintext
296 lines
3.3 KiB
Plaintext
TITLE:Levitating
|
|
SUBTITLE:--Dua Lipa feat. DaBaby
|
|
BPM:103
|
|
WAVE:Levitating.ogg
|
|
OFFSET:-4.636
|
|
DEMOSTART:32.597
|
|
BGMOVIE:.mp4
|
|
MAKER:Colin
|
|
PREIMAGE:Levitating.jpg
|
|
|
|
COURSE:Oni
|
|
LEVEL:7
|
|
BALLOON:
|
|
SCOREINIT:
|
|
SCOREDIFF:
|
|
NOTESDESIGNER3:Colin
|
|
|
|
|
|
#START
|
|
#SCROLL 1.8
|
|
40000000101010112010101120102010,
|
|
20101010202210112000100010202010,
|
|
40000011201020201010201020201010,
|
|
20111010202010112000100010002000,
|
|
4121111150081111,
|
|
50000080212010201000200050000080,
|
|
4010111122112121,
|
|
20201120101020102000200010002000,
|
|
4000300120103001,
|
|
2111300122102021,
|
|
2111200121201001,
|
|
2122303030306000,
|
|
8000
|
|
#GOGOSTART
|
|
100120101021,
|
|
20221020100000102000100010002010,
|
|
2011202122221002,
|
|
1020110121102010,
|
|
4111200210201002,
|
|
1020100210201022,
|
|
1120100210201002,
|
|
1020110121102001,
|
|
201010102
|
|
#GOGOEND
|
|
00000102010101120101010,
|
|
20001011200000101020201020111010,
|
|
10201011102010102010101010201020,
|
|
1012102111212211,
|
|
2012112210211122,
|
|
1121211122112121,
|
|
10000010201210112010201020001010,
|
|
2111211121221122,
|
|
1020302000302011,
|
|
2200302040111211,
|
|
20111010201010112010101120101022,
|
|
10002012102010102010101020101211,
|
|
2002112121112211,
|
|
20101010201122112010101020201122,
|
|
10102010100010102010101120101011,
|
|
20101011202010102010101020100010,
|
|
2111300120103001,
|
|
2111300122102021,
|
|
2111200121201001,
|
|
2122303030306000,
|
|
8000
|
|
#GOGOSTART
|
|
100120101021,
|
|
20221020100000102000100010000010,
|
|
2120101122221002,
|
|
1020110121102010,
|
|
4111200210201002,
|
|
1020100210201022,
|
|
1120100210201002,
|
|
1020110121102001,
|
|
2111200011212021,
|
|
0120122121112021,
|
|
2121221021211021,
|
|
2210303030303000,
|
|
#GOGOEND
|
|
2,
|
|
#END
|
|
|
|
COURSE:Hard
|
|
LEVEL:6
|
|
BALLOON:3,3,1,3,3
|
|
SCOREINIT:
|
|
SCOREDIFF:
|
|
NOTESDESIGNER2:Colin
|
|
|
|
#START
|
|
#SCROLL 1.5
|
|
4000102220101010,
|
|
2011101020201020,
|
|
2000102220102022,
|
|
22112121,
|
|
20205820,
|
|
5080222210201020,
|
|
20112111,
|
|
2022101020102020,
|
|
20370837,
|
|
0008300222203020,
|
|
2323,
|
|
20444468,
|
|
4000
|
|
#GOGOSTART
|
|
102210201011,
|
|
22112022,
|
|
21212011,
|
|
21101010,
|
|
4000102210201011,
|
|
22112022,
|
|
21212011,
|
|
2010100010201022,
|
|
1
|
|
#GOGOEND
|
|
111,
|
|
12781010,
|
|
1111,
|
|
10101012,
|
|
0,
|
|
20121212,
|
|
20121212,
|
|
20121212,
|
|
10332332,
|
|
2000303020222222,
|
|
12301010,
|
|
1020101010101011,
|
|
1020101020001111,
|
|
21122010,
|
|
1111,
|
|
1100,
|
|
20370837,
|
|
0008300222203020,
|
|
2323,
|
|
20444468,
|
|
#GOGOSTART
|
|
4000102210201011,
|
|
22112022,
|
|
21212011,
|
|
21101010,
|
|
4000102210201011,
|
|
22112022,
|
|
21212011,
|
|
2010100010201022,
|
|
1111200011111011,
|
|
0110000011111011,
|
|
0111100011111011,
|
|
0110303030303000,
|
|
#GOGOEND
|
|
2,
|
|
#END
|
|
|
|
COURSE:Normal
|
|
LEVEL:7
|
|
BALLOON:
|
|
SCOREINIT:
|
|
SCOREDIFF:
|
|
NOTESDESIGNER1:Colin
|
|
|
|
|
|
#START
|
|
4111,
|
|
20101012,
|
|
2111,
|
|
2111,
|
|
2111,
|
|
2111,
|
|
2111,
|
|
1111,
|
|
10582058,
|
|
20582058,
|
|
20582058,
|
|
20444440,
|
|
40
|
|
#GOGOSTART
|
|
101210,
|
|
20112010,
|
|
10121012,
|
|
20212010,
|
|
20101210,
|
|
20112010,
|
|
10121012,
|
|
20212010,
|
|
1
|
|
#GOGOEND
|
|
100,
|
|
11,
|
|
11,
|
|
11,
|
|
1111,
|
|
1111,
|
|
1111,
|
|
1111,
|
|
10120220,
|
|
10120212,
|
|
1111,
|
|
1111,
|
|
1111,
|
|
1111,
|
|
1111,
|
|
1000100100000000,
|
|
10582058,
|
|
20582058,
|
|
20582058,
|
|
20444440,
|
|
40
|
|
#GOGOSTART
|
|
101210,
|
|
20112010,
|
|
10121012,
|
|
20212010,
|
|
20101210,
|
|
20112010,
|
|
10121012,
|
|
20212010,
|
|
3111,
|
|
2111,
|
|
2111,
|
|
2111,
|
|
#GOGOEND
|
|
2,
|
|
#END
|
|
|
|
COURSE:Easy
|
|
LEVEL:3
|
|
BALLOON:
|
|
SCOREINIT:
|
|
SCOREDIFF:
|
|
NOTESDESIGNER0:Colin
|
|
|
|
#START
|
|
41,
|
|
21,
|
|
21,
|
|
21,
|
|
20500850,
|
|
08500000,
|
|
8120,
|
|
2022,
|
|
21,
|
|
11,
|
|
11,
|
|
11,
|
|
4
|
|
#GOGOSTART
|
|
685,
|
|
08002000,
|
|
20500820,
|
|
20500008,
|
|
2585,
|
|
08002000,
|
|
20500820,
|
|
20500008,
|
|
#GOGOEND
|
|
1,
|
|
1,
|
|
1,
|
|
1,
|
|
11,
|
|
11,
|
|
11,
|
|
11,
|
|
11,
|
|
11,
|
|
11,
|
|
11,
|
|
11,
|
|
11,
|
|
11,
|
|
11,
|
|
21,
|
|
11,
|
|
11,
|
|
11,
|
|
4
|
|
#GOGOSTART
|
|
685,
|
|
08002000,
|
|
20500820,
|
|
20500008,
|
|
2585,
|
|
08002000,
|
|
20500820,
|
|
20500008,
|
|
05,
|
|
08005000,
|
|
00085000,
|
|
08000000,
|
|
#GOGOEND
|
|
2,
|
|
#END
|
|
|
|
|
|
|
|
|