Files
Colins_Custom_Charts/01 Pop/Requiem/Requiem.tja
T
2025-12-20 15:48:32 -05:00

517 lines
5.2 KiB
Plaintext

TITLE:Requiem
SUBTITLE:--Kanaria feat. Suisei Hoshimachi
TITLEJA:レクイエム
SUBTITLEJA:Kanaria feat. 星街すいせい
PREIMAGE:Requiem.png
BPM:155
OFFSET:-0.774
DEMOSTART:114.774
WAVE:Requiem.ogg
MAKER:Colin
COURSE:Oni
LEVEL:8
SCOREINIT:
SCOREDIFF:
NOTESDESIGNER3:Colin
#START
1011201022112022,
1011201022112022,
1011201022112022,
1011201022112020,
#GOGOSTART
3003003030030030,
30030030
#GOGOEND
30003000,
#GOGOSTART
1222122212221222,
#GOGOEND
2020,
2011201020102022,
1011201020112020,
1011201020102020,
4011201020222011,
2011201020102022,
1011201022112010,
2011202020102012,
1011201020112022,
2011201020102022,
1011201020102020,
1011201020102020,
1011201040112010,
1011201020102022,
1011201020102220,
2011201020102010,
1011201020112010,
1201202020102022,
1011202010112020,
1201202022112022,
1011201022112022,
1201202010112022,
1011201022112022,
1201201020112030,
03330222,
#GOGOSTART
3021204022112020,
3021203022112020,
1021201020112020,
1021201022112022,
2011201022112022,
1021202011112020,
1011202011112020,
#GOGOEND
3003004020112020,
#GOGOSTART
3021204022112020,
3021203022112020,
1021201020112020,
1021201022112022,
2011201022112022,
1021202012112020,
1011202011112020,
#GOGOEND
3003004020112022,
#GOGOSTART
1011202010212020,
1021202010212020,
1021202010212020,
1022102210112222,
1011202010212020,
1011202010112020,
33030303,
004040404011
#GOGOEND
2000,
1011201022112022,
1011201022112022,
1011201022112022,
1011201022112011,
1011201022112022,
2021201022112011,
1021202022112020,
4040404020112211,
1011201022112022,
1011201011112011,
1011201010112022,
1011201022112011,
2021201011112022,
1011201022112011,
2021202011112030,
03340222,
03333303,
03340222,
#GOGOSTART
3021204022112020,
3021203022112020,
1021201020112020,
1021201022112022,
2011201022112022,
1021202012112020,
1011202011112020,
#GOGOEND
3003004020112020,
#GOGOSTART
3021204022112020,
3021203022112020,
1021201020112020,
1021201022112022,
2011201022112022,
1021202012112020,
1011202011112020,
#GOGOEND
3003004020112022,
#GOGOSTART
1011202010212020,
1021202010212020,
1021202010212020,
1022102210112222,
1011202010212020,
1011202010112020,
33030303,
004040404011
#GOGOEND
2000,
#END
COURSE:Hard
LEVEL:5
SCOREINIT:
SCOREDIFF:
NOTESDESIGNER2:Colin
#START
11210120,
11210120,
11210120,
11210120,
#GOGOSTART
3003003030030030,
30030030
#GOGOEND
30003000,
#GOGOSTART
2220222022202220,
#GOGOEND
2020,
1022201000102000,
1022201000102020,
10210122,
1000102000222000,
11210120,
11210120,
22210121,
11210120,
10210120,
10210122,
20210122,
3340,
11210121,
10210120,
11210121,
01120000,
00022222,
20220202,
10210120,
11210120,
10210120,
10210120,
20222223,
03330000,
#GOGOSTART
3011104000102020,
3011104000102020,
1000201000111020,
1000202000222000,
11210120,
11210120,
10201122,
#GOGOEND
30030333,
#GOGOSTART
3011104000102020,
3011104000102020,
1000201000111020,
1000202000222000,
11210120,
11210120,
10201122,
#GOGOEND
30030030,
#GOGOSTART
1011102000102010,
0022200010102010,
01210121,
0011101110111011,
10201121,
01210122,
33030303,
044440
#GOGOEND
40,
10210120,
10210120,
10210120,
10210120,
10210120,
10210120,
10210120,
2011102000222020,
10210120,
10210120,
10210120,
10210120,
10210120,
10210120,
10101003,
03330000,
03333303,
03330000,
#GOGOSTART
3011104000102020,
3011104000102020,
1000201000111020,
1000202000222000,
11210120,
11210120,
10201122,
#GOGOEND
30030333,
#GOGOSTART
3011104000102020,
3011104000102020,
1000201000111020,
1000202000222000,
11210120,
11210120,
10201122,
#GOGOEND
30030030,
#GOGOSTART
1011102000102010,
0022200010102010,
01210121,
0011101110111011,
10201121,
01210122,
33030303,
044440
#GOGOEND
40,
#END
COURSE:Normal
LEVEL:4
BALLOON:5,5
SCOREINIT:
SCOREDIFF:
NOTESDESIGNER1:Colin
#START
1010,
1,
1010,
1,
#GOGOSTART
3030,
30
#GOGOEND
30,
#GOGOSTART
3,
#GOGOEND
4,
2220,
2020,
2220,
2020,
1110,
1010,
2220,
2010,
1110,
1010,
1110,
1010,
2220,
2020,
1110,
1020,
2220,
2220,
1110,
1010,
2222,
2010,
10101103,
03330000,
#GOGOSTART
10112010,
1020,
10112010,
1020,
10111000,
10112010,
1020,
#GOGOEND
10111000,
#GOGOSTART
10112010,
1020,
10112010,
1020,
10111010,
10112010,
1010,
#GOGOEND
1010,
#GOGOSTART
20222020,
2020,
20222020,
2020,
20222020,
2020,
04040404,
070000
#GOGOEND
80,
1012,
1020,
10111000,
1020,
1210,
10001110,
1020,
1,
10112000,
10112000,
1011,
1020,
11102000,
11102000,
10001003,
03330000,
6,
00080000,
#GOGOSTART
10112010,
1020,
10112010,
1020,
10111000,
10112010,
1020,
#GOGOEND
10111000,
#GOGOSTART
10112010,
1020,
10112010,
1020,
10111010,
10112010,
1010,
#GOGOEND
1010,
#GOGOSTART
20222020,
2020,
20222020,
2020,
20222020,
2020,
04040404,
070000
#GOGOEND
80,
#END
COURSE:Easy
LEVEL:2
BALLOON:5,5
SCOREINIT:
SCOREDIFF:
NOTESDESIGNER0:Colin
#START
1,
1,
1,
1,
#GOGOSTART
3,
30
#GOGOEND
00,
#GOGOSTART
3,
#GOGOEND
4,
2020,
2,
2020,
2,
1010,
1,
2020,
2,
1010,
1,
1010,
1,
2020,
2,
1010,
1,
2020,
2,
1010,
1,
2020,
2,
10001003,
03330000,
#GOGOSTART
1020,
1,
1020,
1,
1010,
1020,
1,
#GOGOEND
1010,
#GOGOSTART
1020,
1,
1020,
1,
1010,
1020,
1,
#GOGOEND
1010,
#GOGOSTART
2020,
2,
2020,
2,
2020,
2,
04040404,
070000
#GOGOEND
80,
1,
1,
1,
1,
1,
1,
1,
1,
1120,
1120,
1010,
1,
1120,
1120,
10001003,
03330000,
6,
00080000,
#GOGOSTART
1020,
1,
1020,
1,
1010,
1020,
1,
#GOGOEND
1010,
#GOGOSTART
1020,
1,
1020,
1,
1010,
1020,
1,
#GOGOEND
1010,
#GOGOSTART
2020,
2,
2020,
2,
2020,
2,
04040404,
070000
#GOGOEND
80,
#END