Files
Colins_Custom_Charts/01 Pop/Song 2/Song 2.tja
T
2025-06-11 19:53:16 -04:00

4875 lines
53 KiB
Plaintext

TITLE:Song 2
SUBTITLE:--Blur
TITLEJA:Song 2
SUBTITLEJA:Blur
PREIMAGE:Song 2.jpg
BGMOVIE:Song 2.mp4
WAVE:Song 2.ogg
BPM:131
OFFSET:-2.048
DEMOSTART:86.6878
MAKER:Colin
COURSE:Easy
LEVEL:2
SCOREINIT:
SCOREDIFF:
NOTESDESIGNER0:Colin
#START
#SCROLL 0.992366
1
#BPMCHANGE 133
#SCROLL 0.977444
0
#BPMCHANGE 129
#SCROLL 1.00775
0
#BPMCHANGE 125
#SCROLL 1.04
0
#BPMCHANGE 133
#SCROLL 0.977444
1
#BPMCHANGE 134
#SCROLL 0.970149
0
#BPMCHANGE 124
#SCROLL 1.04839
0
#BPMCHANGE 134
#SCROLL 0.970149
0,
#BPMCHANGE 128
#SCROLL 1.01563
1
#BPMCHANGE 137
#SCROLL 0.948905
0
#BPMCHANGE 127
#SCROLL 1.02362
0
#BPMCHANGE 123
#SCROLL 1.05691
0
#BPMCHANGE 133
#SCROLL 0.977444
0
#BPMCHANGE 132
#SCROLL 0.984848
0
#BPMCHANGE 134
#SCROLL 0.970149
0
#BPMCHANGE 125
#SCROLL 1.04
0,
#BPMCHANGE 130
#SCROLL 1
200
#BPMCHANGE 125
#SCROLL 1.04
02
#BPMCHANGE 142
#SCROLL 0.915493
0
#BPMCHANGE 123
#SCROLL 1.05691
0
#BPMCHANGE 129
#SCROLL 1.00775
0,
#BPMCHANGE 135
#SCROLL 0.962963
2
#BPMCHANGE 136
#SCROLL 0.955882
0
#BPMCHANGE 119
#SCROLL 1.09244
0
#BPMCHANGE 131
#SCROLL 0.992366
0
#BPMCHANGE 133
#SCROLL 0.977444
0
#BPMCHANGE 132
#SCROLL 0.984848
0
#BPMCHANGE 135
#SCROLL 0.962963
0
#BPMCHANGE 123
#SCROLL 1.05691
0,
#BPMCHANGE 129
#SCROLL 1.00775
1
#BPMCHANGE 133
#SCROLL 0.977444
0
#BPMCHANGE 130
#SCROLL 1
0
#BPMCHANGE 124
#SCROLL 1.04839
0
#BPMCHANGE 126
#SCROLL 1.03175
1
#BPMCHANGE 141
#SCROLL 0.921986
0
#BPMCHANGE 124
#SCROLL 1.04839
0
#BPMCHANGE 130
#SCROLL 1
0,
#BPMCHANGE 135
#SCROLL 0.962963
1
#BPMCHANGE 134
#SCROLL 0.970149
0
#BPMCHANGE 127
#SCROLL 1.02362
0
#BPMCHANGE 122
#SCROLL 1.06557
0
#BPMCHANGE 130
#SCROLL 1
0
#BPMCHANGE 136
#SCROLL 0.955882
0
#BPMCHANGE 135
#SCROLL 0.962963
0
#BPMCHANGE 122
#SCROLL 1.06557
0,
#BPMCHANGE 131
#SCROLL 0.992366
2
#BPMCHANGE 132
#SCROLL 0.984848
0
#BPMCHANGE 129
#SCROLL 1.00775
0
#BPMCHANGE 125
#SCROLL 1.04
02
#BPMCHANGE 142
#SCROLL 0.915493
0
#BPMCHANGE 124
#SCROLL 1.04839
0
#BPMCHANGE 129
#SCROLL 1.00775
0,
#BPMCHANGE 135
#SCROLL 0.962963
2
#BPMCHANGE 122
#SCROLL 1.06557
0
#BPMCHANGE 132
#SCROLL 0.984848
0
#BPMCHANGE 137
#SCROLL 0.948905
0,
#GOGOSTART
#BPMCHANGE 121
#SCROLL 1.07438
3
#BPMCHANGE 125
#SCROLL 1.04
0
#BPMCHANGE 143
#SCROLL 0.909091
1
#BPMCHANGE 134
#SCROLL 0.970149
0,
#BPMCHANGE 126
#SCROLL 1.03175
1010
#BPMCHANGE 144
#SCROLL 0.902778
1
#BPMCHANGE 127
#SCROLL 1.02362
0
#BPMCHANGE 127
#SCROLL 1.02362
0
#BPMCHANGE 117
#SCROLL 1.11111
0,
#BPMCHANGE 128
#SCROLL 1.01563
2
#BPMCHANGE 142
#SCROLL 0.915493
0
#BPMCHANGE 129
#SCROLL 1.00775
00
#BPMCHANGE 131
#SCROLL 0.992366
20
#BPMCHANGE 123
#SCROLL 1.05691
0
#BPMCHANGE 125
#SCROLL 1.04
0,
#BPMCHANGE 132
#SCROLL 0.984848
2
#BPMCHANGE 137
#SCROLL 0.948905
0
#BPMCHANGE 134
#SCROLL 0.970149
20
#BPMCHANGE 127
#SCROLL 1.02362
2
#BPMCHANGE 135
#SCROLL 0.962963
0
#BPMCHANGE 125
#SCROLL 1.04
00,
#BPMCHANGE 131
#SCROLL 0.992366
10
#BPMCHANGE 129
#SCROLL 1.00775
1
#BPMCHANGE 126
#SCROLL 1.03175
0,
#BPMCHANGE 132
#SCROLL 0.984848
1
#BPMCHANGE 135
#SCROLL 0.962963
0
#BPMCHANGE 137
#SCROLL 0.948905
10
#BPMCHANGE 117
#SCROLL 1.11111
1
#BPMCHANGE 137
#SCROLL 0.948905
00
#BPMCHANGE 130
#SCROLL 1
0,
#BPMCHANGE 134
#SCROLL 0.970149
2
#BPMCHANGE 118
#SCROLL 1.10169
0
#BPMCHANGE 128
#SCROLL 1.01563
002
#BPMCHANGE 135
#SCROLL 0.962963
000,
#BPMCHANGE 127
#SCROLL 1.02362
22
#BPMCHANGE 135
#SCROLL 0.962963
2
#BPMCHANGE 137
#SCROLL 0.948905
0,
#GOGOEND
#BPMCHANGE 121
#SCROLL 1.07438
10
#BPMCHANGE 123
#SCROLL 1.05691
00
#BPMCHANGE 133
#SCROLL 0.977444
000
#BPMCHANGE 121
#SCROLL 1.07438
0,
#BPMCHANGE 125
#SCROLL 1.04
0
#BPMCHANGE 138
#SCROLL 0.942029
00
#BPMCHANGE 127
#SCROLL 1.02362
0
#BPMCHANGE 121
#SCROLL 1.07438
0
#BPMCHANGE 123
#SCROLL 1.05691
0
#BPMCHANGE 124
#SCROLL 1.04839
0
#BPMCHANGE 150
#SCROLL 0.866667
0,
#BPMCHANGE 130
#SCROLL 1
1
#BPMCHANGE 120
#SCROLL 1.08333
0
#BPMCHANGE 133
#SCROLL 0.977444
0
#BPMCHANGE 139
#SCROLL 0.935252
0
#BPMCHANGE 137
#SCROLL 0.948905
0
#BPMCHANGE 134
#SCROLL 0.970149
0
#BPMCHANGE 124
#SCROLL 1.04839
00,
#BPMCHANGE 130
#SCROLL 1
0
#BPMCHANGE 138
#SCROLL 0.942029
0
#BPMCHANGE 135
#SCROLL 0.962963
0
#BPMCHANGE 122
#SCROLL 1.06557
0
#BPMCHANGE 121
#SCROLL 1.07438
0
#BPMCHANGE 121
#SCROLL 1.07438
0
#BPMCHANGE 148
#SCROLL 0.878378
0
#BPMCHANGE 129
#SCROLL 1.00775
0,
#BPMCHANGE 119
#SCROLL 1.09244
1
#BPMCHANGE 130
#SCROLL 1
0
#BPMCHANGE 137
#SCROLL 0.948905
00
#BPMCHANGE 118
#SCROLL 1.10169
0
#BPMCHANGE 128
#SCROLL 1.01563
0
#BPMCHANGE 147
#SCROLL 0.884354
0
#BPMCHANGE 136
#SCROLL 0.955882
0,
#BPMCHANGE 128
#SCROLL 1.01563
0
#BPMCHANGE 118
#SCROLL 1.10169
0
#BPMCHANGE 126
#SCROLL 1.03175
000
#BPMCHANGE 144
#SCROLL 0.902778
0
#BPMCHANGE 123
#SCROLL 1.05691
0
#BPMCHANGE 135
#SCROLL 0.962963
0,
#BPMCHANGE 131
#SCROLL 0.992366
1
#BPMCHANGE 128
#SCROLL 1.01563
0
#BPMCHANGE 127
#SCROLL 1.02362
0
#BPMCHANGE 133
#SCROLL 0.977444
0
#BPMCHANGE 137
#SCROLL 0.948905
0
#BPMCHANGE 135
#SCROLL 0.962963
0
#BPMCHANGE 126
#SCROLL 1.03175
00,
#BPMCHANGE 122
#SCROLL 1.06557
0
#BPMCHANGE 133
#SCROLL 0.977444
00
#BPMCHANGE 135
#SCROLL 0.962963
0
#BPMCHANGE 130
#SCROLL 1
0
#BPMCHANGE 128
#SCROLL 1.01563
0
#BPMCHANGE 126
#SCROLL 1.03175
0
#BPMCHANGE 133
#SCROLL 0.977444
0,
#GOGOSTART
#BPMCHANGE 137
#SCROLL 0.948905
2
#BPMCHANGE 134
#SCROLL 0.970149
0
#BPMCHANGE 128
#SCROLL 1.01563
0
#BPMCHANGE 125
#SCROLL 1.04
0
#BPMCHANGE 125
#SCROLL 1.04
2
#BPMCHANGE 122
#SCROLL 1.06557
00
#BPMCHANGE 148
#SCROLL 0.878378
0,
#BPMCHANGE 139
#SCROLL 0.935252
20
#BPMCHANGE 133
#SCROLL 0.977444
00
#BPMCHANGE 128
#SCROLL 1.01563
20
#BPMCHANGE 133
#SCROLL 0.977444
00200
#BPMCHANGE 119
#SCROLL 1.09244
0
#BPMCHANGE 117
#SCROLL 1.11111
000
#BPMCHANGE 177
#SCROLL 0.734463
0,
#BPMCHANGE 133
#SCROLL 0.977444
100
#BPMCHANGE 126
#SCROLL 1.03175
0
#BPMCHANGE 134
#SCROLL 0.970149
1
#BPMCHANGE 119
#SCROLL 1.09244
0
#BPMCHANGE 114
#SCROLL 1.14035
0
#BPMCHANGE 150
#SCROLL 0.866667
0,
#BPMCHANGE 123
#SCROLL 1.05691
1
#BPMCHANGE 128
#SCROLL 1.01563
0
#BPMCHANGE 131
#SCROLL 0.992366
1
#BPMCHANGE 139
#SCROLL 0.935252
0
#BPMCHANGE 130
#SCROLL 1
1
#BPMCHANGE 127
#SCROLL 1.02362
00
#BPMCHANGE 125
#SCROLL 1.04
0,
2
#BPMCHANGE 147
#SCROLL 0.884354
0
#BPMCHANGE 130
#SCROLL 1
002
#BPMCHANGE 123
#SCROLL 1.05691
00
#BPMCHANGE 125
#SCROLL 1.04
0,
#BPMCHANGE 130
#SCROLL 1
20
#BPMCHANGE 142
#SCROLL 0.915493
00
#BPMCHANGE 134
#SCROLL 0.970149
20
#BPMCHANGE 136
#SCROLL 0.955882
0
#BPMCHANGE 134
#SCROLL 0.970149
0
#BPMCHANGE 126
#SCROLL 1.03175
2000
#BPMCHANGE 117
#SCROLL 1.11111
00
#BPMCHANGE 145
#SCROLL 0.896552
00,
#BPMCHANGE 126
#SCROLL 1.03175
10
#BPMCHANGE 138
#SCROLL 0.942029
00
#BPMCHANGE 134
#SCROLL 0.970149
00
#BPMCHANGE 129
#SCROLL 1.00775
00
#BPMCHANGE 136
#SCROLL 0.955882
1
#BPMCHANGE 115
#SCROLL 1.13043
0
#BPMCHANGE 126
#SCROLL 1.03175
000
#BPMCHANGE 135
#SCROLL 0.962963
000,
100
#BPMCHANGE 107
#SCROLL 1.21495
0
#BPMCHANGE 119
#SCROLL 1.09244
10
#BPMCHANGE 148
#SCROLL 0.878378
00
#BPMCHANGE 129
#SCROLL 1.00775
1000
#BPMCHANGE 125
#SCROLL 1.04
00
#BPMCHANGE 135
#SCROLL 0.962963
00,
#BPMCHANGE 127
#SCROLL 1.02362
2
#BPMCHANGE 123
#SCROLL 1.05691
00
#BPMCHANGE 128
#SCROLL 1.01563
0
#BPMCHANGE 137
#SCROLL 0.948905
2
#BPMCHANGE 128
#SCROLL 1.01563
000,
#BPMCHANGE 142
#SCROLL 0.915493
2
#BPMCHANGE 125
#SCROLL 1.04
02
#BPMCHANGE 124
#SCROLL 1.04839
0
#BPMCHANGE 122
#SCROLL 1.06557
2
#BPMCHANGE 138
#SCROLL 0.942029
0
#BPMCHANGE 141
#SCROLL 0.921986
0
#BPMCHANGE 144
#SCROLL 0.902778
0,
#BPMCHANGE 146
#SCROLL 0.890411
1
#BPMCHANGE 119
#SCROLL 1.09244
00
#BPMCHANGE 133
#SCROLL 0.977444
0
#BPMCHANGE 136
#SCROLL 0.955882
1
#BPMCHANGE 137
#SCROLL 0.948905
0
#BPMCHANGE 131
#SCROLL 0.992366
0
#BPMCHANGE 127
#SCROLL 1.02362
0,
#BPMCHANGE 121
#SCROLL 1.07438
1
#BPMCHANGE 132
#SCROLL 0.984848
010
#BPMCHANGE 127
#SCROLL 1.02362
1
#BPMCHANGE 131
#SCROLL 0.992366
00
#BPMCHANGE 134
#SCROLL 0.970149
0,
#BPMCHANGE 131
#SCROLL 0.992366
20
#BPMCHANGE 123
#SCROLL 1.05691
00
#BPMCHANGE 125
#SCROLL 1.04
00
#BPMCHANGE 128
#SCROLL 1.01563
00
#BPMCHANGE 137
#SCROLL 0.948905
20
#BPMCHANGE 134
#SCROLL 0.970149
00
#BPMCHANGE 138
#SCROLL 0.942029
0
#BPMCHANGE 140
#SCROLL 0.928571
00
#BPMCHANGE 93
#SCROLL 1.39785
0,
#BPMCHANGE 133
#SCROLL 0.977444
20
#BPMCHANGE 126
#SCROLL 1.03175
00
#BPMCHANGE 135
#SCROLL 0.962963
20
#BPMCHANGE 139
#SCROLL 0.935252
00
#BPMCHANGE 142
#SCROLL 0.915493
2
#BPMCHANGE 118
#SCROLL 1.10169
000
#BPMCHANGE 126
#SCROLL 1.03175
00
#BPMCHANGE 133
#SCROLL 0.977444
00,
#GOGOEND
#BPMCHANGE 136
#SCROLL 0.955882
10
#BPMCHANGE 126
#SCROLL 1.03175
00
#BPMCHANGE 130
#SCROLL 1
00
#BPMCHANGE 125
#SCROLL 1.04
0
#BPMCHANGE 117
#SCROLL 1.11111
0,
#BPMCHANGE 123
#SCROLL 1.05691
0
#BPMCHANGE 148
#SCROLL 0.878378
0
#BPMCHANGE 143
#SCROLL 0.909091
0
#BPMCHANGE 123
#SCROLL 1.05691
0
#BPMCHANGE 112
#SCROLL 1.16071
0
#BPMCHANGE 159
#SCROLL 0.81761
0
#BPMCHANGE 136
#SCROLL 0.955882
0
#BPMCHANGE 119
#SCROLL 1.09244
0,
#BPMCHANGE 117
#SCROLL 1.11111
100
#BPMCHANGE 144
#SCROLL 0.902778
0
#BPMCHANGE 136
#SCROLL 0.955882
00
#BPMCHANGE 104
#SCROLL 1.25
0
#BPMCHANGE 162
#SCROLL 0.802469
0
#BPMCHANGE 113
#SCROLL 1.15044
00
#BPMCHANGE 166
#SCROLL 0.783133
00
#BPMCHANGE 201
#SCROLL 0.646766
000
#BPMCHANGE 60
#SCROLL 2.16667
0,
#BPMCHANGE 135
#SCROLL 0.962963
0
#BPMCHANGE 138
#SCROLL 0.942029
0
#BPMCHANGE 127
#SCROLL 1.02362
0
#BPMCHANGE 109
#SCROLL 1.19266
0
#BPMCHANGE 125
#SCROLL 1.04
0
#BPMCHANGE 153
#SCROLL 0.849673
0
#BPMCHANGE 138
#SCROLL 0.942029
0
#BPMCHANGE 128
#SCROLL 1.01563
0,
#BPMCHANGE 122
#SCROLL 1.06557
1000
#BPMCHANGE 147
#SCROLL 0.884354
00
#BPMCHANGE 109
#SCROLL 1.19266
0
#BPMCHANGE 142
#SCROLL 0.915493
0
#BPMCHANGE 145
#SCROLL 0.896552
00
#BPMCHANGE 120
#SCROLL 1.08333
00
#BPMCHANGE 135
#SCROLL 0.962963
0000,
0
#BPMCHANGE 134
#SCROLL 0.970149
0
#BPMCHANGE 118
#SCROLL 1.10169
0
#BPMCHANGE 149
#SCROLL 0.872483
0
#BPMCHANGE 127
#SCROLL 1.02362
0
#BPMCHANGE 119
#SCROLL 1.09244
0
#BPMCHANGE 126
#SCROLL 1.03175
0
#BPMCHANGE 128
#SCROLL 1.01563
0,
#BPMCHANGE 136
#SCROLL 0.955882
100000
#BPMCHANGE 123
#SCROLL 1.05691
0
#BPMCHANGE 140
#SCROLL 0.928571
0
#BPMCHANGE 133
#SCROLL 0.977444
00
#BPMCHANGE 109
#SCROLL 1.19266
00
#BPMCHANGE 128
#SCROLL 1.01563
00
#BPMCHANGE 133
#SCROLL 0.977444
00,
#BPMCHANGE 126
#SCROLL 1.03175
0
#BPMCHANGE 139
#SCROLL 0.935252
0
#BPMCHANGE 117
#SCROLL 1.11111
0
#BPMCHANGE 133
#SCROLL 0.977444
0
#BPMCHANGE 114
#SCROLL 1.14035
0
#BPMCHANGE 158
#SCROLL 0.822785
0
#BPMCHANGE 123
#SCROLL 1.05691
0
#BPMCHANGE 152
#SCROLL 0.855263
0,
#GOGOSTART
#BPMCHANGE 138
#SCROLL 0.942029
3
#BPMCHANGE 127
#SCROLL 1.02362
0
#BPMCHANGE 122
#SCROLL 1.06557
0
#BPMCHANGE 126
#SCROLL 1.03175
01
#BPMCHANGE 131
#SCROLL 0.992366
0
#BPMCHANGE 125
#SCROLL 1.04
00,
1
#BPMCHANGE 153
#SCROLL 0.849673
0
#BPMCHANGE 139
#SCROLL 0.935252
1
#BPMCHANGE 136
#SCROLL 0.955882
0
#BPMCHANGE 124
#SCROLL 1.04839
10
#BPMCHANGE 136
#SCROLL 0.955882
0
#BPMCHANGE 119
#SCROLL 1.09244
0,
#BPMCHANGE 135
#SCROLL 0.962963
20
#BPMCHANGE 133
#SCROLL 0.977444
00
#BPMCHANGE 125
#SCROLL 1.04
00
#BPMCHANGE 103
#SCROLL 1.26214
0
#BPMCHANGE 139
#SCROLL 0.935252
02
#BPMCHANGE 145
#SCROLL 0.896552
0000000,
#BPMCHANGE 120
#SCROLL 1.08333
2
#BPMCHANGE 114
#SCROLL 1.14035
0002000
#BPMCHANGE 151
#SCROLL 0.860927
20
#BPMCHANGE 130
#SCROLL 1
00
#BPMCHANGE 127
#SCROLL 1.02362
00
#BPMCHANGE 151
#SCROLL 0.860927
00,
#BPMCHANGE 125
#SCROLL 1.04
1
#BPMCHANGE 132
#SCROLL 0.984848
0
#BPMCHANGE 125
#SCROLL 1.04
00
#BPMCHANGE 134
#SCROLL 0.970149
10
#BPMCHANGE 138
#SCROLL 0.942029
0
#BPMCHANGE 123
#SCROLL 1.05691
0,
#BPMCHANGE 126
#SCROLL 1.03175
10
#BPMCHANGE 139
#SCROLL 0.935252
00
#BPMCHANGE 127
#SCROLL 1.02362
1000
#BPMCHANGE 134
#SCROLL 0.970149
1
#BPMCHANGE 133
#SCROLL 0.977444
0
#BPMCHANGE 138
#SCROLL 0.942029
0000
#BPMCHANGE 123
#SCROLL 1.05691
00,
#BPMCHANGE 130
#SCROLL 1
20
#BPMCHANGE 125
#SCROLL 1.04
0
#BPMCHANGE 132
#SCROLL 0.984848
02
#BPMCHANGE 117
#SCROLL 1.11111
0
#BPMCHANGE 112
#SCROLL 1.16071
0
#BPMCHANGE 163
#SCROLL 0.797546
0,
#BPMCHANGE 130
#SCROLL 1
20
#BPMCHANGE 133
#SCROLL 0.977444
202
#BPMCHANGE 128
#SCROLL 1.01563
0
#BPMCHANGE 131
#SCROLL 0.992366
00,
#BPMCHANGE 126
#SCROLL 1.03175
1
#BPMCHANGE 129
#SCROLL 1.00775
0
#BPMCHANGE 116
#SCROLL 1.12069
0
#BPMCHANGE 142
#SCROLL 0.915493
0
#BPMCHANGE 127
#SCROLL 1.02362
10
#BPMCHANGE 119
#SCROLL 1.09244
0
#BPMCHANGE 145
#SCROLL 0.896552
0,
#BPMCHANGE 131
#SCROLL 0.992366
10101
#BPMCHANGE 138
#SCROLL 0.942029
00
#BPMCHANGE 115
#SCROLL 1.13043
0,
#BPMCHANGE 131
#SCROLL 0.992366
2000
#BPMCHANGE 135
#SCROLL 0.962963
2
#BPMCHANGE 121
#SCROLL 1.07438
000,
#BPMCHANGE 147
#SCROLL 0.884354
2
#BPMCHANGE 138
#SCROLL 0.942029
0
#BPMCHANGE 131
#SCROLL 0.992366
2020
#BPMCHANGE 123
#SCROLL 1.05691
0
#BPMCHANGE 134
#SCROLL 0.970149
0,
#BPMCHANGE 124
#SCROLL 1.04839
1
#BPMCHANGE 130
#SCROLL 1
0
#BPMCHANGE 121
#SCROLL 1.07438
0
#BPMCHANGE 144
#SCROLL 0.902778
0
#BPMCHANGE 122
#SCROLL 1.06557
1
#BPMCHANGE 129
#SCROLL 1.00775
0
#BPMCHANGE 111
#SCROLL 1.17117
0
#BPMCHANGE 156
#SCROLL 0.833333
0,
#BPMCHANGE 130
#SCROLL 1
10001000
#BPMCHANGE 140
#SCROLL 0.928571
1
#BPMCHANGE 134
#SCROLL 0.970149
000
#BPMCHANGE 123
#SCROLL 1.05691
00
#BPMCHANGE 128
#SCROLL 1.01563
00,
#BPMCHANGE 131
#SCROLL 0.992366
20
#BPMCHANGE 127
#SCROLL 1.02362
20,
#BPMCHANGE 125
#SCROLL 1.04
2000
#BPMCHANGE 145
#SCROLL 0.896552
20
#BPMCHANGE 133
#SCROLL 0.977444
0
#BPMCHANGE 137
#SCROLL 0.948905
020
#BPMCHANGE 127
#SCROLL 1.02362
000000,
#BPMCHANGE 121
#SCROLL 1.07438
1
#BPMCHANGE 137
#SCROLL 0.948905
0
#BPMCHANGE 129
#SCROLL 1.00775
0
#BPMCHANGE 126
#SCROLL 1.03175
0
#BPMCHANGE 129
#SCROLL 1.00775
10
#BPMCHANGE 125
#SCROLL 1.04
0
#BPMCHANGE 129
#SCROLL 1.00775
0,
#BPMCHANGE 139
#SCROLL 0.935252
10
#BPMCHANGE 134
#SCROLL 0.970149
1
#BPMCHANGE 125
#SCROLL 1.04
0
#BPMCHANGE 117
#SCROLL 1.11111
1
#BPMCHANGE 134
#SCROLL 0.970149
0
#BPMCHANGE 121
#SCROLL 1.07438
0
#BPMCHANGE 150
#SCROLL 0.866667
0,
#MEASURE 2/4
#GOGOEND
#BPMCHANGE 134
#SCROLL 0.970149
3,
#END
COURSE:Normal
LEVEL:3
SCOREINIT:
SCOREDIFF:
NOTESDESIGNER1:Colin
#START
#SCROLL 0.992366
1
#BPMCHANGE 133
#SCROLL 0.977444
0
#BPMCHANGE 129
#SCROLL 1.00775
0
#BPMCHANGE 125
#SCROLL 1.04
0
#BPMCHANGE 133
#SCROLL 0.977444
1
#BPMCHANGE 134
#SCROLL 0.970149
0
#BPMCHANGE 124
#SCROLL 1.04839
0
#BPMCHANGE 134
#SCROLL 0.970149
0,
#BPMCHANGE 128
#SCROLL 1.01563
1
#BPMCHANGE 137
#SCROLL 0.948905
0
#BPMCHANGE 127
#SCROLL 1.02362
1
#BPMCHANGE 123
#SCROLL 1.05691
0
#BPMCHANGE 133
#SCROLL 0.977444
1
#BPMCHANGE 132
#SCROLL 0.984848
0
#BPMCHANGE 134
#SCROLL 0.970149
0
#BPMCHANGE 125
#SCROLL 1.04
0,
#BPMCHANGE 130
#SCROLL 1
200
#BPMCHANGE 125
#SCROLL 1.04
02
#BPMCHANGE 142
#SCROLL 0.915493
0
#BPMCHANGE 123
#SCROLL 1.05691
0
#BPMCHANGE 129
#SCROLL 1.00775
0,
#BPMCHANGE 135
#SCROLL 0.962963
2
#BPMCHANGE 136
#SCROLL 0.955882
0
#BPMCHANGE 119
#SCROLL 1.09244
2
#BPMCHANGE 131
#SCROLL 0.992366
0
#BPMCHANGE 133
#SCROLL 0.977444
2
#BPMCHANGE 132
#SCROLL 0.984848
0
#BPMCHANGE 135
#SCROLL 0.962963
0
#BPMCHANGE 123
#SCROLL 1.05691
0,
#BPMCHANGE 129
#SCROLL 1.00775
1
#BPMCHANGE 133
#SCROLL 0.977444
0
#BPMCHANGE 130
#SCROLL 1
0
#BPMCHANGE 124
#SCROLL 1.04839
0
#BPMCHANGE 126
#SCROLL 1.03175
1
#BPMCHANGE 141
#SCROLL 0.921986
0
#BPMCHANGE 124
#SCROLL 1.04839
0
#BPMCHANGE 130
#SCROLL 1
0,
#BPMCHANGE 135
#SCROLL 0.962963
1
#BPMCHANGE 134
#SCROLL 0.970149
0
#BPMCHANGE 127
#SCROLL 1.02362
1
#BPMCHANGE 122
#SCROLL 1.06557
0
#BPMCHANGE 130
#SCROLL 1
1
#BPMCHANGE 136
#SCROLL 0.955882
0
#BPMCHANGE 135
#SCROLL 0.962963
0
#BPMCHANGE 122
#SCROLL 1.06557
0,
#BPMCHANGE 131
#SCROLL 0.992366
2
#BPMCHANGE 132
#SCROLL 0.984848
0
#BPMCHANGE 129
#SCROLL 1.00775
0
#BPMCHANGE 125
#SCROLL 1.04
02
#BPMCHANGE 142
#SCROLL 0.915493
0
#BPMCHANGE 124
#SCROLL 1.04839
0
#BPMCHANGE 129
#SCROLL 1.00775
0,
#BPMCHANGE 135
#SCROLL 0.962963
2
#BPMCHANGE 122
#SCROLL 1.06557
2
#BPMCHANGE 132
#SCROLL 0.984848
2
#BPMCHANGE 137
#SCROLL 0.948905
0,
#GOGOSTART
#BPMCHANGE 121
#SCROLL 1.07438
30
#BPMCHANGE 125
#SCROLL 1.04
00
#BPMCHANGE 143
#SCROLL 0.909091
10
#BPMCHANGE 134
#SCROLL 0.970149
11,
#BPMCHANGE 126
#SCROLL 1.03175
1010
#BPMCHANGE 144
#SCROLL 0.902778
1
#BPMCHANGE 127
#SCROLL 1.02362
0
#BPMCHANGE 127
#SCROLL 1.02362
0
#BPMCHANGE 117
#SCROLL 1.11111
0,
#BPMCHANGE 128
#SCROLL 1.01563
2
#BPMCHANGE 142
#SCROLL 0.915493
0
#BPMCHANGE 129
#SCROLL 1.00775
00
#BPMCHANGE 131
#SCROLL 0.992366
20
#BPMCHANGE 123
#SCROLL 1.05691
2
#BPMCHANGE 125
#SCROLL 1.04
2,
#BPMCHANGE 132
#SCROLL 0.984848
2
#BPMCHANGE 137
#SCROLL 0.948905
0
#BPMCHANGE 134
#SCROLL 0.970149
20
#BPMCHANGE 127
#SCROLL 1.02362
2
#BPMCHANGE 135
#SCROLL 0.962963
0
#BPMCHANGE 125
#SCROLL 1.04
00,
#BPMCHANGE 131
#SCROLL 0.992366
1000
#BPMCHANGE 129
#SCROLL 1.00775
10
#BPMCHANGE 126
#SCROLL 1.03175
11,
#BPMCHANGE 132
#SCROLL 0.984848
1
#BPMCHANGE 135
#SCROLL 0.962963
0
#BPMCHANGE 137
#SCROLL 0.948905
10
#BPMCHANGE 117
#SCROLL 1.11111
1
#BPMCHANGE 137
#SCROLL 0.948905
00
#BPMCHANGE 130
#SCROLL 1
0,
#BPMCHANGE 134
#SCROLL 0.970149
2
#BPMCHANGE 118
#SCROLL 1.10169
0
#BPMCHANGE 128
#SCROLL 1.01563
002
#BPMCHANGE 135
#SCROLL 0.962963
022,
#BPMCHANGE 127
#SCROLL 1.02362
22
#BPMCHANGE 135
#SCROLL 0.962963
2
#BPMCHANGE 137
#SCROLL 0.948905
0,
#GOGOEND
#BPMCHANGE 121
#SCROLL 1.07438
10
#BPMCHANGE 123
#SCROLL 1.05691
10
#BPMCHANGE 133
#SCROLL 0.977444
000
#BPMCHANGE 121
#SCROLL 1.07438
0,
#BPMCHANGE 125
#SCROLL 1.04
0
#BPMCHANGE 138
#SCROLL 0.942029
00
#BPMCHANGE 127
#SCROLL 1.02362
0
#BPMCHANGE 121
#SCROLL 1.07438
0
#BPMCHANGE 123
#SCROLL 1.05691
0
#BPMCHANGE 124
#SCROLL 1.04839
1
#BPMCHANGE 150
#SCROLL 0.866667
0,
#BPMCHANGE 130
#SCROLL 1
1
#BPMCHANGE 120
#SCROLL 1.08333
0
#BPMCHANGE 133
#SCROLL 0.977444
1
#BPMCHANGE 139
#SCROLL 0.935252
0
#BPMCHANGE 137
#SCROLL 0.948905
0
#BPMCHANGE 134
#SCROLL 0.970149
0
#BPMCHANGE 124
#SCROLL 1.04839
00,
#BPMCHANGE 130
#SCROLL 1
0
#BPMCHANGE 138
#SCROLL 0.942029
0
#BPMCHANGE 135
#SCROLL 0.962963
0
#BPMCHANGE 122
#SCROLL 1.06557
0
#BPMCHANGE 121
#SCROLL 1.07438
0
#BPMCHANGE 121
#SCROLL 1.07438
0
#BPMCHANGE 148
#SCROLL 0.878378
1
#BPMCHANGE 129
#SCROLL 1.00775
0,
#BPMCHANGE 119
#SCROLL 1.09244
1
#BPMCHANGE 130
#SCROLL 1
0
#BPMCHANGE 137
#SCROLL 0.948905
10
#BPMCHANGE 118
#SCROLL 1.10169
0
#BPMCHANGE 128
#SCROLL 1.01563
0
#BPMCHANGE 147
#SCROLL 0.884354
0
#BPMCHANGE 136
#SCROLL 0.955882
0,
#BPMCHANGE 128
#SCROLL 1.01563
0
#BPMCHANGE 118
#SCROLL 1.10169
0
#BPMCHANGE 126
#SCROLL 1.03175
000
#BPMCHANGE 144
#SCROLL 0.902778
0
#BPMCHANGE 123
#SCROLL 1.05691
1
#BPMCHANGE 135
#SCROLL 0.962963
0,
#BPMCHANGE 131
#SCROLL 0.992366
1
#BPMCHANGE 128
#SCROLL 1.01563
0
#BPMCHANGE 127
#SCROLL 1.02362
1
#BPMCHANGE 133
#SCROLL 0.977444
0
#BPMCHANGE 137
#SCROLL 0.948905
0
#BPMCHANGE 135
#SCROLL 0.962963
0
#BPMCHANGE 126
#SCROLL 1.03175
00,
#BPMCHANGE 122
#SCROLL 1.06557
0
#BPMCHANGE 133
#SCROLL 0.977444
00
#BPMCHANGE 135
#SCROLL 0.962963
0
#BPMCHANGE 130
#SCROLL 1
0
#BPMCHANGE 128
#SCROLL 1.01563
0
#BPMCHANGE 126
#SCROLL 1.03175
2
#BPMCHANGE 133
#SCROLL 0.977444
0,
#GOGOSTART
#BPMCHANGE 137
#SCROLL 0.948905
2
#BPMCHANGE 134
#SCROLL 0.970149
0
#BPMCHANGE 128
#SCROLL 1.01563
0
#BPMCHANGE 125
#SCROLL 1.04
0
#BPMCHANGE 125
#SCROLL 1.04
2
#BPMCHANGE 122
#SCROLL 1.06557
02
#BPMCHANGE 148
#SCROLL 0.878378
2,
#BPMCHANGE 139
#SCROLL 0.935252
20
#BPMCHANGE 133
#SCROLL 0.977444
00
#BPMCHANGE 128
#SCROLL 1.01563
20
#BPMCHANGE 133
#SCROLL 0.977444
00200
#BPMCHANGE 119
#SCROLL 1.09244
0
#BPMCHANGE 117
#SCROLL 1.11111
000
#BPMCHANGE 177
#SCROLL 0.734463
0,
#BPMCHANGE 133
#SCROLL 0.977444
100
#BPMCHANGE 126
#SCROLL 1.03175
0
#BPMCHANGE 134
#SCROLL 0.970149
1
#BPMCHANGE 119
#SCROLL 1.09244
0
#BPMCHANGE 114
#SCROLL 1.14035
1
#BPMCHANGE 150
#SCROLL 0.866667
1,
#BPMCHANGE 123
#SCROLL 1.05691
1
#BPMCHANGE 128
#SCROLL 1.01563
0
#BPMCHANGE 131
#SCROLL 0.992366
1
#BPMCHANGE 139
#SCROLL 0.935252
0
#BPMCHANGE 130
#SCROLL 1
1
#BPMCHANGE 127
#SCROLL 1.02362
00
#BPMCHANGE 125
#SCROLL 1.04
0,
2
#BPMCHANGE 147
#SCROLL 0.884354
0
#BPMCHANGE 130
#SCROLL 1
002
#BPMCHANGE 123
#SCROLL 1.05691
02
#BPMCHANGE 125
#SCROLL 1.04
2,
#BPMCHANGE 130
#SCROLL 1
20
#BPMCHANGE 142
#SCROLL 0.915493
00
#BPMCHANGE 134
#SCROLL 0.970149
20
#BPMCHANGE 136
#SCROLL 0.955882
0
#BPMCHANGE 134
#SCROLL 0.970149
0
#BPMCHANGE 126
#SCROLL 1.03175
2000
#BPMCHANGE 117
#SCROLL 1.11111
00
#BPMCHANGE 145
#SCROLL 0.896552
00,
#BPMCHANGE 126
#SCROLL 1.03175
10
#BPMCHANGE 138
#SCROLL 0.942029
00
#BPMCHANGE 134
#SCROLL 0.970149
00
#BPMCHANGE 129
#SCROLL 1.00775
00
#BPMCHANGE 136
#SCROLL 0.955882
1
#BPMCHANGE 115
#SCROLL 1.13043
0
#BPMCHANGE 126
#SCROLL 1.03175
001
#BPMCHANGE 135
#SCROLL 0.962963
010,
100
#BPMCHANGE 107
#SCROLL 1.21495
0
#BPMCHANGE 119
#SCROLL 1.09244
10
#BPMCHANGE 148
#SCROLL 0.878378
00
#BPMCHANGE 129
#SCROLL 1.00775
1000
#BPMCHANGE 125
#SCROLL 1.04
00
#BPMCHANGE 135
#SCROLL 0.962963
00,
#BPMCHANGE 127
#SCROLL 1.02362
2
#BPMCHANGE 123
#SCROLL 1.05691
00
#BPMCHANGE 128
#SCROLL 1.01563
0
#BPMCHANGE 137
#SCROLL 0.948905
2
#BPMCHANGE 128
#SCROLL 1.01563
022,
#BPMCHANGE 142
#SCROLL 0.915493
2
#BPMCHANGE 125
#SCROLL 1.04
02
#BPMCHANGE 124
#SCROLL 1.04839
0
#BPMCHANGE 122
#SCROLL 1.06557
2
#BPMCHANGE 138
#SCROLL 0.942029
0
#BPMCHANGE 141
#SCROLL 0.921986
0
#BPMCHANGE 144
#SCROLL 0.902778
0,
#BPMCHANGE 146
#SCROLL 0.890411
1
#BPMCHANGE 119
#SCROLL 1.09244
01
#BPMCHANGE 133
#SCROLL 0.977444
1
#BPMCHANGE 136
#SCROLL 0.955882
1
#BPMCHANGE 137
#SCROLL 0.948905
0
#BPMCHANGE 131
#SCROLL 0.992366
1
#BPMCHANGE 127
#SCROLL 1.02362
0,
#BPMCHANGE 121
#SCROLL 1.07438
1
#BPMCHANGE 132
#SCROLL 0.984848
010
#BPMCHANGE 127
#SCROLL 1.02362
1
#BPMCHANGE 131
#SCROLL 0.992366
00
#BPMCHANGE 134
#SCROLL 0.970149
0,
#BPMCHANGE 131
#SCROLL 0.992366
20
#BPMCHANGE 123
#SCROLL 1.05691
00
#BPMCHANGE 125
#SCROLL 1.04
20
#BPMCHANGE 128
#SCROLL 1.01563
20
#BPMCHANGE 137
#SCROLL 0.948905
20
#BPMCHANGE 134
#SCROLL 0.970149
00
#BPMCHANGE 138
#SCROLL 0.942029
2
#BPMCHANGE 140
#SCROLL 0.928571
00
#BPMCHANGE 93
#SCROLL 1.39785
0,
#BPMCHANGE 133
#SCROLL 0.977444
20
#BPMCHANGE 126
#SCROLL 1.03175
00
#BPMCHANGE 135
#SCROLL 0.962963
20
#BPMCHANGE 139
#SCROLL 0.935252
00
#BPMCHANGE 142
#SCROLL 0.915493
2
#BPMCHANGE 118
#SCROLL 1.10169
000
#BPMCHANGE 126
#SCROLL 1.03175
00
#BPMCHANGE 133
#SCROLL 0.977444
00,
#GOGOEND
#BPMCHANGE 136
#SCROLL 0.955882
10
#BPMCHANGE 126
#SCROLL 1.03175
00
#BPMCHANGE 130
#SCROLL 1
00
#BPMCHANGE 125
#SCROLL 1.04
1
#BPMCHANGE 117
#SCROLL 1.11111
1,
#BPMCHANGE 123
#SCROLL 1.05691
1
#BPMCHANGE 148
#SCROLL 0.878378
0
#BPMCHANGE 143
#SCROLL 0.909091
0
#BPMCHANGE 123
#SCROLL 1.05691
0
#BPMCHANGE 112
#SCROLL 1.16071
0
#BPMCHANGE 159
#SCROLL 0.81761
0
#BPMCHANGE 136
#SCROLL 0.955882
0
#BPMCHANGE 119
#SCROLL 1.09244
0,
#BPMCHANGE 117
#SCROLL 1.11111
100
#BPMCHANGE 144
#SCROLL 0.902778
0
#BPMCHANGE 136
#SCROLL 0.955882
00
#BPMCHANGE 104
#SCROLL 1.25
0
#BPMCHANGE 162
#SCROLL 0.802469
0
#BPMCHANGE 113
#SCROLL 1.15044
10
#BPMCHANGE 166
#SCROLL 0.783133
00
#BPMCHANGE 201
#SCROLL 0.646766
000
#BPMCHANGE 60
#SCROLL 2.16667
0,
#BPMCHANGE 135
#SCROLL 0.962963
1
#BPMCHANGE 138
#SCROLL 0.942029
0
#BPMCHANGE 127
#SCROLL 1.02362
0
#BPMCHANGE 109
#SCROLL 1.19266
0
#BPMCHANGE 125
#SCROLL 1.04
0
#BPMCHANGE 153
#SCROLL 0.849673
0
#BPMCHANGE 138
#SCROLL 0.942029
0
#BPMCHANGE 128
#SCROLL 1.01563
0,
#BPMCHANGE 122
#SCROLL 1.06557
1000
#BPMCHANGE 147
#SCROLL 0.884354
10
#BPMCHANGE 109
#SCROLL 1.19266
0
#BPMCHANGE 142
#SCROLL 0.915493
0
#BPMCHANGE 145
#SCROLL 0.896552
10
#BPMCHANGE 120
#SCROLL 1.08333
00
#BPMCHANGE 135
#SCROLL 0.962963
0000,
1
#BPMCHANGE 134
#SCROLL 0.970149
0
#BPMCHANGE 118
#SCROLL 1.10169
0
#BPMCHANGE 149
#SCROLL 0.872483
0
#BPMCHANGE 127
#SCROLL 1.02362
0
#BPMCHANGE 119
#SCROLL 1.09244
0
#BPMCHANGE 126
#SCROLL 1.03175
0
#BPMCHANGE 128
#SCROLL 1.01563
0,
#BPMCHANGE 136
#SCROLL 0.955882
100000
#BPMCHANGE 123
#SCROLL 1.05691
0
#BPMCHANGE 140
#SCROLL 0.928571
0
#BPMCHANGE 133
#SCROLL 0.977444
10
#BPMCHANGE 109
#SCROLL 1.19266
00
#BPMCHANGE 128
#SCROLL 1.01563
00
#BPMCHANGE 133
#SCROLL 0.977444
00,
#BPMCHANGE 126
#SCROLL 1.03175
0
#BPMCHANGE 139
#SCROLL 0.935252
0
#BPMCHANGE 117
#SCROLL 1.11111
0
#BPMCHANGE 133
#SCROLL 0.977444
0
#BPMCHANGE 114
#SCROLL 1.14035
0
#BPMCHANGE 158
#SCROLL 0.822785
0
#BPMCHANGE 123
#SCROLL 1.05691
0
#BPMCHANGE 152
#SCROLL 0.855263
0,
#GOGOSTART
#BPMCHANGE 138
#SCROLL 0.942029
3
#BPMCHANGE 127
#SCROLL 1.02362
0
#BPMCHANGE 122
#SCROLL 1.06557
1
#BPMCHANGE 126
#SCROLL 1.03175
11
#BPMCHANGE 131
#SCROLL 0.992366
0
#BPMCHANGE 125
#SCROLL 1.04
10,
1
#BPMCHANGE 153
#SCROLL 0.849673
0
#BPMCHANGE 139
#SCROLL 0.935252
1
#BPMCHANGE 136
#SCROLL 0.955882
0
#BPMCHANGE 124
#SCROLL 1.04839
10
#BPMCHANGE 136
#SCROLL 0.955882
0
#BPMCHANGE 119
#SCROLL 1.09244
0,
#BPMCHANGE 135
#SCROLL 0.962963
20
#BPMCHANGE 133
#SCROLL 0.977444
00
#BPMCHANGE 125
#SCROLL 1.04
20
#BPMCHANGE 103
#SCROLL 1.26214
2
#BPMCHANGE 139
#SCROLL 0.935252
02
#BPMCHANGE 145
#SCROLL 0.896552
0002000,
#BPMCHANGE 120
#SCROLL 1.08333
2
#BPMCHANGE 114
#SCROLL 1.14035
0002000
#BPMCHANGE 151
#SCROLL 0.860927
20
#BPMCHANGE 130
#SCROLL 1
00
#BPMCHANGE 127
#SCROLL 1.02362
00
#BPMCHANGE 151
#SCROLL 0.860927
00,
#BPMCHANGE 125
#SCROLL 1.04
1
#BPMCHANGE 132
#SCROLL 0.984848
0
#BPMCHANGE 125
#SCROLL 1.04
11
#BPMCHANGE 134
#SCROLL 0.970149
10
#BPMCHANGE 138
#SCROLL 0.942029
1
#BPMCHANGE 123
#SCROLL 1.05691
0,
#BPMCHANGE 126
#SCROLL 1.03175
10
#BPMCHANGE 139
#SCROLL 0.935252
00
#BPMCHANGE 127
#SCROLL 1.02362
1000
#BPMCHANGE 134
#SCROLL 0.970149
1
#BPMCHANGE 133
#SCROLL 0.977444
0
#BPMCHANGE 138
#SCROLL 0.942029
0000
#BPMCHANGE 123
#SCROLL 1.05691
00,
#BPMCHANGE 130
#SCROLL 1
20
#BPMCHANGE 125
#SCROLL 1.04
2
#BPMCHANGE 132
#SCROLL 0.984848
22
#BPMCHANGE 117
#SCROLL 1.11111
0
#BPMCHANGE 112
#SCROLL 1.16071
2
#BPMCHANGE 163
#SCROLL 0.797546
0,
#BPMCHANGE 130
#SCROLL 1
20
#BPMCHANGE 133
#SCROLL 0.977444
202
#BPMCHANGE 128
#SCROLL 1.01563
0
#BPMCHANGE 131
#SCROLL 0.992366
00,
#BPMCHANGE 126
#SCROLL 1.03175
1
#BPMCHANGE 129
#SCROLL 1.00775
0
#BPMCHANGE 116
#SCROLL 1.12069
1
#BPMCHANGE 142
#SCROLL 0.915493
1
#BPMCHANGE 127
#SCROLL 1.02362
10
#BPMCHANGE 119
#SCROLL 1.09244
1
#BPMCHANGE 145
#SCROLL 0.896552
0,
#BPMCHANGE 131
#SCROLL 0.992366
10101
#BPMCHANGE 138
#SCROLL 0.942029
00
#BPMCHANGE 115
#SCROLL 1.13043
0,
#BPMCHANGE 131
#SCROLL 0.992366
2002
#BPMCHANGE 135
#SCROLL 0.962963
2
#BPMCHANGE 121
#SCROLL 1.07438
022,
#BPMCHANGE 147
#SCROLL 0.884354
2
#BPMCHANGE 138
#SCROLL 0.942029
0
#BPMCHANGE 131
#SCROLL 0.992366
2020
#BPMCHANGE 123
#SCROLL 1.05691
0
#BPMCHANGE 134
#SCROLL 0.970149
0,
#BPMCHANGE 124
#SCROLL 1.04839
1
#BPMCHANGE 130
#SCROLL 1
0
#BPMCHANGE 121
#SCROLL 1.07438
0
#BPMCHANGE 144
#SCROLL 0.902778
1
#BPMCHANGE 122
#SCROLL 1.06557
1
#BPMCHANGE 129
#SCROLL 1.00775
0
#BPMCHANGE 111
#SCROLL 1.17117
1
#BPMCHANGE 156
#SCROLL 0.833333
1,
#BPMCHANGE 130
#SCROLL 1
10001000
#BPMCHANGE 140
#SCROLL 0.928571
1
#BPMCHANGE 134
#SCROLL 0.970149
000
#BPMCHANGE 123
#SCROLL 1.05691
00
#BPMCHANGE 128
#SCROLL 1.01563
00,
#BPMCHANGE 131
#SCROLL 0.992366
2002
#BPMCHANGE 127
#SCROLL 1.02362
2022,
#BPMCHANGE 125
#SCROLL 1.04
2000
#BPMCHANGE 145
#SCROLL 0.896552
20
#BPMCHANGE 133
#SCROLL 0.977444
0
#BPMCHANGE 137
#SCROLL 0.948905
020
#BPMCHANGE 127
#SCROLL 1.02362
000000,
#BPMCHANGE 121
#SCROLL 1.07438
1
#BPMCHANGE 137
#SCROLL 0.948905
0
#BPMCHANGE 129
#SCROLL 1.00775
0
#BPMCHANGE 126
#SCROLL 1.03175
1
#BPMCHANGE 129
#SCROLL 1.00775
10
#BPMCHANGE 125
#SCROLL 1.04
1
#BPMCHANGE 129
#SCROLL 1.00775
1,
#BPMCHANGE 139
#SCROLL 0.935252
10
#BPMCHANGE 134
#SCROLL 0.970149
1
#BPMCHANGE 125
#SCROLL 1.04
0
#BPMCHANGE 117
#SCROLL 1.11111
1
#BPMCHANGE 134
#SCROLL 0.970149
0
#BPMCHANGE 121
#SCROLL 1.07438
1
#BPMCHANGE 150
#SCROLL 0.866667
0,
#MEASURE 2/4
#GOGOEND
#BPMCHANGE 134
#SCROLL 0.970149
3,
#END
COURSE:Hard
LEVEL:3
SCOREINIT:
SCOREDIFF:
NOTESDESIGNER2:Colin
#START
#SCROLL 0.992366
1
#BPMCHANGE 133
#SCROLL 0.977444
0
#BPMCHANGE 129
#SCROLL 1.00775
2
#BPMCHANGE 125
#SCROLL 1.04
0
#BPMCHANGE 133
#SCROLL 0.977444
1
#BPMCHANGE 134
#SCROLL 0.970149
1
#BPMCHANGE 124
#SCROLL 1.04839
2
#BPMCHANGE 134
#SCROLL 0.970149
0,
#BPMCHANGE 128
#SCROLL 1.01563
1
#BPMCHANGE 137
#SCROLL 0.948905
0
#BPMCHANGE 127
#SCROLL 1.02362
2
#BPMCHANGE 123
#SCROLL 1.05691
0
#BPMCHANGE 133
#SCROLL 0.977444
1
#BPMCHANGE 132
#SCROLL 0.984848
1
#BPMCHANGE 134
#SCROLL 0.970149
2
#BPMCHANGE 125
#SCROLL 1.04
2,
#BPMCHANGE 130
#SCROLL 1
102
#BPMCHANGE 125
#SCROLL 1.04
01
#BPMCHANGE 142
#SCROLL 0.915493
1
#BPMCHANGE 123
#SCROLL 1.05691
2
#BPMCHANGE 129
#SCROLL 1.00775
0,
#BPMCHANGE 135
#SCROLL 0.962963
1
#BPMCHANGE 136
#SCROLL 0.955882
0
#BPMCHANGE 119
#SCROLL 1.09244
2
#BPMCHANGE 131
#SCROLL 0.992366
0
#BPMCHANGE 133
#SCROLL 0.977444
1
#BPMCHANGE 132
#SCROLL 0.984848
1
#BPMCHANGE 135
#SCROLL 0.962963
2
#BPMCHANGE 123
#SCROLL 1.05691
2,
#BPMCHANGE 129
#SCROLL 1.00775
1
#BPMCHANGE 133
#SCROLL 0.977444
0
#BPMCHANGE 130
#SCROLL 1
2
#BPMCHANGE 124
#SCROLL 1.04839
0
#BPMCHANGE 126
#SCROLL 1.03175
1
#BPMCHANGE 141
#SCROLL 0.921986
1
#BPMCHANGE 124
#SCROLL 1.04839
2
#BPMCHANGE 130
#SCROLL 1
0,
#BPMCHANGE 135
#SCROLL 0.962963
1
#BPMCHANGE 134
#SCROLL 0.970149
0
#BPMCHANGE 127
#SCROLL 1.02362
2
#BPMCHANGE 122
#SCROLL 1.06557
0
#BPMCHANGE 130
#SCROLL 1
1
#BPMCHANGE 136
#SCROLL 0.955882
1
#BPMCHANGE 135
#SCROLL 0.962963
2
#BPMCHANGE 122
#SCROLL 1.06557
2,
#BPMCHANGE 131
#SCROLL 0.992366
1
#BPMCHANGE 132
#SCROLL 0.984848
0
#BPMCHANGE 129
#SCROLL 1.00775
2
#BPMCHANGE 125
#SCROLL 1.04
01
#BPMCHANGE 142
#SCROLL 0.915493
1
#BPMCHANGE 124
#SCROLL 1.04839
2
#BPMCHANGE 129
#SCROLL 1.00775
0,
#BPMCHANGE 135
#SCROLL 0.962963
10
#BPMCHANGE 122
#SCROLL 1.06557
20
#BPMCHANGE 132
#SCROLL 0.984848
11
#BPMCHANGE 137
#SCROLL 0.948905
20,
#GOGOSTART
#BPMCHANGE 121
#SCROLL 1.07438
30
#BPMCHANGE 125
#SCROLL 1.04
20
#BPMCHANGE 143
#SCROLL 0.909091
11
#BPMCHANGE 134
#SCROLL 0.970149
20,
#BPMCHANGE 126
#SCROLL 1.03175
1021
#BPMCHANGE 144
#SCROLL 0.902778
0
#BPMCHANGE 127
#SCROLL 1.02362
1
#BPMCHANGE 127
#SCROLL 1.02362
2
#BPMCHANGE 117
#SCROLL 1.11111
2,
#BPMCHANGE 128
#SCROLL 1.01563
1
#BPMCHANGE 142
#SCROLL 0.915493
0
#BPMCHANGE 129
#SCROLL 1.00775
20
#BPMCHANGE 131
#SCROLL 0.992366
11
#BPMCHANGE 123
#SCROLL 1.05691
2
#BPMCHANGE 125
#SCROLL 1.04
0,
#BPMCHANGE 132
#SCROLL 0.984848
1
#BPMCHANGE 137
#SCROLL 0.948905
0
#BPMCHANGE 134
#SCROLL 0.970149
21
#BPMCHANGE 127
#SCROLL 1.02362
0
#BPMCHANGE 135
#SCROLL 0.962963
1
#BPMCHANGE 125
#SCROLL 1.04
22,
#BPMCHANGE 131
#SCROLL 0.992366
1020
#BPMCHANGE 129
#SCROLL 1.00775
11
#BPMCHANGE 126
#SCROLL 1.03175
20,
#BPMCHANGE 132
#SCROLL 0.984848
1
#BPMCHANGE 135
#SCROLL 0.962963
0
#BPMCHANGE 137
#SCROLL 0.948905
21
#BPMCHANGE 117
#SCROLL 1.11111
0
#BPMCHANGE 137
#SCROLL 0.948905
12
#BPMCHANGE 130
#SCROLL 1
2,
#BPMCHANGE 134
#SCROLL 0.970149
1
#BPMCHANGE 118
#SCROLL 1.10169
0
#BPMCHANGE 128
#SCROLL 1.01563
201
#BPMCHANGE 135
#SCROLL 0.962963
120,
#BPMCHANGE 127
#SCROLL 1.02362
1021
#BPMCHANGE 135
#SCROLL 0.962963
01
#BPMCHANGE 137
#SCROLL 0.948905
22,
#GOGOEND
#BPMCHANGE 121
#SCROLL 1.07438
10
#BPMCHANGE 123
#SCROLL 1.05691
20
#BPMCHANGE 133
#SCROLL 0.977444
000
#BPMCHANGE 121
#SCROLL 1.07438
0,
#BPMCHANGE 125
#SCROLL 1.04
0
#BPMCHANGE 138
#SCROLL 0.942029
00
#BPMCHANGE 127
#SCROLL 1.02362
0
#BPMCHANGE 121
#SCROLL 1.07438
0
#BPMCHANGE 123
#SCROLL 1.05691
2
#BPMCHANGE 124
#SCROLL 1.04839
2
#BPMCHANGE 150
#SCROLL 0.866667
2,
#BPMCHANGE 130
#SCROLL 1
1
#BPMCHANGE 120
#SCROLL 1.08333
0
#BPMCHANGE 133
#SCROLL 0.977444
1
#BPMCHANGE 139
#SCROLL 0.935252
0
#BPMCHANGE 137
#SCROLL 0.948905
0
#BPMCHANGE 134
#SCROLL 0.970149
0
#BPMCHANGE 124
#SCROLL 1.04839
00,
#BPMCHANGE 130
#SCROLL 1
0
#BPMCHANGE 138
#SCROLL 0.942029
0
#BPMCHANGE 135
#SCROLL 0.962963
0
#BPMCHANGE 122
#SCROLL 1.06557
0
#BPMCHANGE 121
#SCROLL 1.07438
0
#BPMCHANGE 121
#SCROLL 1.07438
1
#BPMCHANGE 148
#SCROLL 0.878378
2
#BPMCHANGE 129
#SCROLL 1.00775
2,
#BPMCHANGE 119
#SCROLL 1.09244
2
#BPMCHANGE 130
#SCROLL 1
0
#BPMCHANGE 137
#SCROLL 0.948905
10
#BPMCHANGE 118
#SCROLL 1.10169
0
#BPMCHANGE 128
#SCROLL 1.01563
0
#BPMCHANGE 147
#SCROLL 0.884354
0
#BPMCHANGE 136
#SCROLL 0.955882
0,
#BPMCHANGE 128
#SCROLL 1.01563
0
#BPMCHANGE 118
#SCROLL 1.10169
0
#BPMCHANGE 126
#SCROLL 1.03175
000
#BPMCHANGE 144
#SCROLL 0.902778
1
#BPMCHANGE 123
#SCROLL 1.05691
2
#BPMCHANGE 135
#SCROLL 0.962963
2,
#BPMCHANGE 131
#SCROLL 0.992366
1
#BPMCHANGE 128
#SCROLL 1.01563
0
#BPMCHANGE 127
#SCROLL 1.02362
2
#BPMCHANGE 133
#SCROLL 0.977444
0
#BPMCHANGE 137
#SCROLL 0.948905
0
#BPMCHANGE 135
#SCROLL 0.962963
0
#BPMCHANGE 126
#SCROLL 1.03175
00,
#BPMCHANGE 122
#SCROLL 1.06557
0
#BPMCHANGE 133
#SCROLL 0.977444
00
#BPMCHANGE 135
#SCROLL 0.962963
0
#BPMCHANGE 130
#SCROLL 1
0
#BPMCHANGE 128
#SCROLL 1.01563
0
#BPMCHANGE 126
#SCROLL 1.03175
0
#BPMCHANGE 133
#SCROLL 0.977444
0,
#GOGOSTART
#BPMCHANGE 137
#SCROLL 0.948905
3
#BPMCHANGE 134
#SCROLL 0.970149
0
#BPMCHANGE 128
#SCROLL 1.01563
2
#BPMCHANGE 125
#SCROLL 1.04
0
#BPMCHANGE 125
#SCROLL 1.04
1
#BPMCHANGE 122
#SCROLL 1.06557
12
#BPMCHANGE 148
#SCROLL 0.878378
0,
#BPMCHANGE 139
#SCROLL 0.935252
10
#BPMCHANGE 133
#SCROLL 0.977444
00
#BPMCHANGE 128
#SCROLL 1.01563
20
#BPMCHANGE 133
#SCROLL 0.977444
10001
#BPMCHANGE 119
#SCROLL 1.09244
0
#BPMCHANGE 117
#SCROLL 1.11111
202
#BPMCHANGE 177
#SCROLL 0.734463
0,
#BPMCHANGE 133
#SCROLL 0.977444
102
#BPMCHANGE 126
#SCROLL 1.03175
0
#BPMCHANGE 134
#SCROLL 0.970149
1
#BPMCHANGE 119
#SCROLL 1.09244
1
#BPMCHANGE 114
#SCROLL 1.14035
2
#BPMCHANGE 150
#SCROLL 0.866667
0,
#BPMCHANGE 123
#SCROLL 1.05691
1
#BPMCHANGE 128
#SCROLL 1.01563
0
#BPMCHANGE 131
#SCROLL 0.992366
2
#BPMCHANGE 139
#SCROLL 0.935252
1
#BPMCHANGE 130
#SCROLL 1
0
#BPMCHANGE 127
#SCROLL 1.02362
12
#BPMCHANGE 125
#SCROLL 1.04
2,
1
#BPMCHANGE 147
#SCROLL 0.884354
0
#BPMCHANGE 130
#SCROLL 1
201
#BPMCHANGE 123
#SCROLL 1.05691
12
#BPMCHANGE 125
#SCROLL 1.04
0,
#BPMCHANGE 130
#SCROLL 1
10
#BPMCHANGE 142
#SCROLL 0.915493
00
#BPMCHANGE 134
#SCROLL 0.970149
20
#BPMCHANGE 136
#SCROLL 0.955882
1
#BPMCHANGE 134
#SCROLL 0.970149
0
#BPMCHANGE 126
#SCROLL 1.03175
0010
#BPMCHANGE 117
#SCROLL 1.11111
20
#BPMCHANGE 145
#SCROLL 0.896552
20,
#BPMCHANGE 126
#SCROLL 1.03175
10
#BPMCHANGE 138
#SCROLL 0.942029
00
#BPMCHANGE 134
#SCROLL 0.970149
20
#BPMCHANGE 129
#SCROLL 1.00775
00
#BPMCHANGE 136
#SCROLL 0.955882
1
#BPMCHANGE 115
#SCROLL 1.13043
0
#BPMCHANGE 126
#SCROLL 1.03175
102
#BPMCHANGE 135
#SCROLL 0.962963
000,
100
#BPMCHANGE 107
#SCROLL 1.21495
0
#BPMCHANGE 119
#SCROLL 1.09244
20
#BPMCHANGE 148
#SCROLL 0.878378
10
#BPMCHANGE 129
#SCROLL 1.00775
0010
#BPMCHANGE 125
#SCROLL 1.04
20
#BPMCHANGE 135
#SCROLL 0.962963
20,
#BPMCHANGE 127
#SCROLL 1.02362
1
#BPMCHANGE 123
#SCROLL 1.05691
02
#BPMCHANGE 128
#SCROLL 1.01563
0
#BPMCHANGE 137
#SCROLL 0.948905
1
#BPMCHANGE 128
#SCROLL 1.01563
120,
#BPMCHANGE 142
#SCROLL 0.915493
1
#BPMCHANGE 125
#SCROLL 1.04
22
#BPMCHANGE 124
#SCROLL 1.04839
1
#BPMCHANGE 122
#SCROLL 1.06557
0
#BPMCHANGE 138
#SCROLL 0.942029
1
#BPMCHANGE 141
#SCROLL 0.921986
2
#BPMCHANGE 144
#SCROLL 0.902778
2,
#BPMCHANGE 146
#SCROLL 0.890411
1
#BPMCHANGE 119
#SCROLL 1.09244
02
#BPMCHANGE 133
#SCROLL 0.977444
0
#BPMCHANGE 136
#SCROLL 0.955882
1
#BPMCHANGE 137
#SCROLL 0.948905
1
#BPMCHANGE 131
#SCROLL 0.992366
2
#BPMCHANGE 127
#SCROLL 1.02362
1,
#BPMCHANGE 121
#SCROLL 1.07438
0
#BPMCHANGE 132
#SCROLL 0.984848
120
#BPMCHANGE 127
#SCROLL 1.02362
1
#BPMCHANGE 131
#SCROLL 0.992366
12
#BPMCHANGE 134
#SCROLL 0.970149
0,
#BPMCHANGE 131
#SCROLL 0.992366
10
#BPMCHANGE 123
#SCROLL 1.05691
00
#BPMCHANGE 125
#SCROLL 1.04
20
#BPMCHANGE 128
#SCROLL 1.01563
00
#BPMCHANGE 137
#SCROLL 0.948905
10
#BPMCHANGE 134
#SCROLL 0.970149
10
#BPMCHANGE 138
#SCROLL 0.942029
2
#BPMCHANGE 140
#SCROLL 0.928571
01
#BPMCHANGE 93
#SCROLL 1.39785
0,
#BPMCHANGE 133
#SCROLL 0.977444
00
#BPMCHANGE 126
#SCROLL 1.03175
10
#BPMCHANGE 135
#SCROLL 0.962963
20
#BPMCHANGE 139
#SCROLL 0.935252
10
#BPMCHANGE 142
#SCROLL 0.915493
0
#BPMCHANGE 118
#SCROLL 1.10169
010
#BPMCHANGE 126
#SCROLL 1.03175
20
#BPMCHANGE 133
#SCROLL 0.977444
20,
#GOGOEND
#BPMCHANGE 136
#SCROLL 0.955882
10
#BPMCHANGE 126
#SCROLL 1.03175
20
#BPMCHANGE 130
#SCROLL 1
00
#BPMCHANGE 125
#SCROLL 1.04
0
#BPMCHANGE 117
#SCROLL 1.11111
0,
#BPMCHANGE 123
#SCROLL 1.05691
0
#BPMCHANGE 148
#SCROLL 0.878378
0
#BPMCHANGE 143
#SCROLL 0.909091
0
#BPMCHANGE 123
#SCROLL 1.05691
0
#BPMCHANGE 112
#SCROLL 1.16071
0
#BPMCHANGE 159
#SCROLL 0.81761
1
#BPMCHANGE 136
#SCROLL 0.955882
2
#BPMCHANGE 119
#SCROLL 1.09244
2,
#BPMCHANGE 117
#SCROLL 1.11111
100
#BPMCHANGE 144
#SCROLL 0.902778
0
#BPMCHANGE 136
#SCROLL 0.955882
20
#BPMCHANGE 104
#SCROLL 1.25
0
#BPMCHANGE 162
#SCROLL 0.802469
0
#BPMCHANGE 113
#SCROLL 1.15044
00
#BPMCHANGE 166
#SCROLL 0.783133
00
#BPMCHANGE 201
#SCROLL 0.646766
000
#BPMCHANGE 60
#SCROLL 2.16667
0,
#BPMCHANGE 135
#SCROLL 0.962963
0
#BPMCHANGE 138
#SCROLL 0.942029
0
#BPMCHANGE 127
#SCROLL 1.02362
0
#BPMCHANGE 109
#SCROLL 1.19266
0
#BPMCHANGE 125
#SCROLL 1.04
0
#BPMCHANGE 153
#SCROLL 0.849673
2
#BPMCHANGE 138
#SCROLL 0.942029
2
#BPMCHANGE 128
#SCROLL 1.01563
2,
#BPMCHANGE 122
#SCROLL 1.06557
1000
#BPMCHANGE 147
#SCROLL 0.884354
20
#BPMCHANGE 109
#SCROLL 1.19266
0
#BPMCHANGE 142
#SCROLL 0.915493
0
#BPMCHANGE 145
#SCROLL 0.896552
00
#BPMCHANGE 120
#SCROLL 1.08333
00
#BPMCHANGE 135
#SCROLL 0.962963
0000,
0
#BPMCHANGE 134
#SCROLL 0.970149
0
#BPMCHANGE 118
#SCROLL 1.10169
0
#BPMCHANGE 149
#SCROLL 0.872483
0
#BPMCHANGE 127
#SCROLL 1.02362
0
#BPMCHANGE 119
#SCROLL 1.09244
1
#BPMCHANGE 126
#SCROLL 1.03175
2
#BPMCHANGE 128
#SCROLL 1.01563
2,
#BPMCHANGE 136
#SCROLL 0.955882
000020
#BPMCHANGE 123
#SCROLL 1.05691
0
#BPMCHANGE 140
#SCROLL 0.928571
0
#BPMCHANGE 133
#SCROLL 0.977444
50
#BPMCHANGE 109
#SCROLL 1.19266
00
#BPMCHANGE 128
#SCROLL 1.01563
00
#BPMCHANGE 133
#SCROLL 0.977444
00,
#BPMCHANGE 126
#SCROLL 1.03175
0
#BPMCHANGE 139
#SCROLL 0.935252
0
#BPMCHANGE 117
#SCROLL 1.11111
0
#BPMCHANGE 133
#SCROLL 0.977444
0
#BPMCHANGE 114
#SCROLL 1.14035
8
#BPMCHANGE 158
#SCROLL 0.822785
0
#BPMCHANGE 123
#SCROLL 1.05691
0
#BPMCHANGE 152
#SCROLL 0.855263
0,
#GOGOSTART
#BPMCHANGE 138
#SCROLL 0.942029
3
#BPMCHANGE 127
#SCROLL 1.02362
0
#BPMCHANGE 122
#SCROLL 1.06557
2
#BPMCHANGE 126
#SCROLL 1.03175
01
#BPMCHANGE 131
#SCROLL 0.992366
1
#BPMCHANGE 125
#SCROLL 1.04
20,
1
#BPMCHANGE 153
#SCROLL 0.849673
0
#BPMCHANGE 139
#SCROLL 0.935252
2
#BPMCHANGE 136
#SCROLL 0.955882
1
#BPMCHANGE 124
#SCROLL 1.04839
01
#BPMCHANGE 136
#SCROLL 0.955882
2
#BPMCHANGE 119
#SCROLL 1.09244
2,
#BPMCHANGE 135
#SCROLL 0.962963
10
#BPMCHANGE 133
#SCROLL 0.977444
00
#BPMCHANGE 125
#SCROLL 1.04
20
#BPMCHANGE 103
#SCROLL 1.26214
0
#BPMCHANGE 139
#SCROLL 0.935252
01
#BPMCHANGE 145
#SCROLL 0.896552
0102000,
#BPMCHANGE 120
#SCROLL 1.08333
1
#BPMCHANGE 114
#SCROLL 1.14035
0002010
#BPMCHANGE 151
#SCROLL 0.860927
00
#BPMCHANGE 130
#SCROLL 1
10
#BPMCHANGE 127
#SCROLL 1.02362
20
#BPMCHANGE 151
#SCROLL 0.860927
20,
#BPMCHANGE 125
#SCROLL 1.04
1
#BPMCHANGE 132
#SCROLL 0.984848
0
#BPMCHANGE 125
#SCROLL 1.04
20
#BPMCHANGE 134
#SCROLL 0.970149
11
#BPMCHANGE 138
#SCROLL 0.942029
2
#BPMCHANGE 123
#SCROLL 1.05691
0,
#BPMCHANGE 126
#SCROLL 1.03175
10
#BPMCHANGE 139
#SCROLL 0.935252
00
#BPMCHANGE 127
#SCROLL 1.02362
2010
#BPMCHANGE 134
#SCROLL 0.970149
0
#BPMCHANGE 133
#SCROLL 0.977444
0
#BPMCHANGE 138
#SCROLL 0.942029
1020
#BPMCHANGE 123
#SCROLL 1.05691
20,
#BPMCHANGE 130
#SCROLL 1
10
#BPMCHANGE 125
#SCROLL 1.04
2
#BPMCHANGE 132
#SCROLL 0.984848
01
#BPMCHANGE 117
#SCROLL 1.11111
1
#BPMCHANGE 112
#SCROLL 1.16071
2
#BPMCHANGE 163
#SCROLL 0.797546
0,
#BPMCHANGE 130
#SCROLL 1
10
#BPMCHANGE 133
#SCROLL 0.977444
210
#BPMCHANGE 128
#SCROLL 1.01563
1
#BPMCHANGE 131
#SCROLL 0.992366
22,
#BPMCHANGE 126
#SCROLL 1.03175
1
#BPMCHANGE 129
#SCROLL 1.00775
0
#BPMCHANGE 116
#SCROLL 1.12069
2
#BPMCHANGE 142
#SCROLL 0.915493
0
#BPMCHANGE 127
#SCROLL 1.02362
11
#BPMCHANGE 119
#SCROLL 1.09244
2
#BPMCHANGE 145
#SCROLL 0.896552
0,
#BPMCHANGE 131
#SCROLL 0.992366
11212
#BPMCHANGE 138
#SCROLL 0.942029
02
#BPMCHANGE 115
#SCROLL 1.13043
0,
#BPMCHANGE 131
#SCROLL 0.992366
1122
#BPMCHANGE 135
#SCROLL 0.962963
1
#BPMCHANGE 121
#SCROLL 1.07438
120,
#BPMCHANGE 147
#SCROLL 0.884354
1
#BPMCHANGE 138
#SCROLL 0.942029
0
#BPMCHANGE 131
#SCROLL 0.992366
2101
#BPMCHANGE 123
#SCROLL 1.05691
2
#BPMCHANGE 134
#SCROLL 0.970149
2,
#BPMCHANGE 124
#SCROLL 1.04839
1
#BPMCHANGE 130
#SCROLL 1
1
#BPMCHANGE 121
#SCROLL 1.07438
2
#BPMCHANGE 144
#SCROLL 0.902778
2
#BPMCHANGE 122
#SCROLL 1.06557
1
#BPMCHANGE 129
#SCROLL 1.00775
1
#BPMCHANGE 111
#SCROLL 1.17117
2
#BPMCHANGE 156
#SCROLL 0.833333
2,
#BPMCHANGE 130
#SCROLL 1
10002010
#BPMCHANGE 140
#SCROLL 0.928571
0
#BPMCHANGE 134
#SCROLL 0.970149
000
#BPMCHANGE 123
#SCROLL 1.05691
20
#BPMCHANGE 128
#SCROLL 1.01563
20,
#BPMCHANGE 131
#SCROLL 0.992366
1020
#BPMCHANGE 127
#SCROLL 1.02362
1122,
#BPMCHANGE 125
#SCROLL 1.04
1000
#BPMCHANGE 145
#SCROLL 0.896552
20
#BPMCHANGE 133
#SCROLL 0.977444
1
#BPMCHANGE 137
#SCROLL 0.948905
000
#BPMCHANGE 127
#SCROLL 1.02362
102000,
#BPMCHANGE 121
#SCROLL 1.07438
1
#BPMCHANGE 137
#SCROLL 0.948905
0
#BPMCHANGE 129
#SCROLL 1.00775
2
#BPMCHANGE 126
#SCROLL 1.03175
0
#BPMCHANGE 129
#SCROLL 1.00775
11
#BPMCHANGE 125
#SCROLL 1.04
2
#BPMCHANGE 129
#SCROLL 1.00775
0,
#BPMCHANGE 139
#SCROLL 0.935252
10
#BPMCHANGE 134
#SCROLL 0.970149
2
#BPMCHANGE 125
#SCROLL 1.04
1
#BPMCHANGE 117
#SCROLL 1.11111
0
#BPMCHANGE 134
#SCROLL 0.970149
1
#BPMCHANGE 121
#SCROLL 1.07438
2
#BPMCHANGE 150
#SCROLL 0.866667
2,
#MEASURE 2/4
#GOGOEND
#BPMCHANGE 134
#SCROLL 0.970149
3,
#END
COURSE:Oni
LEVEL:5
SCOREINIT:
SCOREDIFF:
NOTESDESIGNER3:Colin
#START
#SCROLL 0.992366
1
#BPMCHANGE 133
#SCROLL 0.977444
1
#BPMCHANGE 129
#SCROLL 1.00775
2
#BPMCHANGE 125
#SCROLL 1.04
1
#BPMCHANGE 133
#SCROLL 0.977444
1
#BPMCHANGE 134
#SCROLL 0.970149
1
#BPMCHANGE 124
#SCROLL 1.04839
2
#BPMCHANGE 134
#SCROLL 0.970149
1,
#BPMCHANGE 128
#SCROLL 1.01563
1
#BPMCHANGE 137
#SCROLL 0.948905
1
#BPMCHANGE 127
#SCROLL 1.02362
2
#BPMCHANGE 123
#SCROLL 1.05691
1
#BPMCHANGE 133
#SCROLL 0.977444
1
#BPMCHANGE 132
#SCROLL 0.984848
1
#BPMCHANGE 134
#SCROLL 0.970149
2
#BPMCHANGE 125
#SCROLL 1.04
2,
#BPMCHANGE 130
#SCROLL 1
112
#BPMCHANGE 125
#SCROLL 1.04
11
#BPMCHANGE 142
#SCROLL 0.915493
1
#BPMCHANGE 123
#SCROLL 1.05691
2
#BPMCHANGE 129
#SCROLL 1.00775
1,
#BPMCHANGE 135
#SCROLL 0.962963
1
#BPMCHANGE 136
#SCROLL 0.955882
1
#BPMCHANGE 119
#SCROLL 1.09244
2
#BPMCHANGE 131
#SCROLL 0.992366
1
#BPMCHANGE 133
#SCROLL 0.977444
1
#BPMCHANGE 132
#SCROLL 0.984848
1
#BPMCHANGE 135
#SCROLL 0.962963
2
#BPMCHANGE 123
#SCROLL 1.05691
2,
#BPMCHANGE 129
#SCROLL 1.00775
10
#BPMCHANGE 133
#SCROLL 0.977444
11
#BPMCHANGE 130
#SCROLL 1
20
#BPMCHANGE 124
#SCROLL 1.04839
11
#BPMCHANGE 126
#SCROLL 1.03175
10
#BPMCHANGE 141
#SCROLL 0.921986
10
#BPMCHANGE 124
#SCROLL 1.04839
20
#BPMCHANGE 130
#SCROLL 1
11,
#BPMCHANGE 135
#SCROLL 0.962963
1
#BPMCHANGE 134
#SCROLL 0.970149
1
#BPMCHANGE 127
#SCROLL 1.02362
2
#BPMCHANGE 122
#SCROLL 1.06557
1
#BPMCHANGE 130
#SCROLL 1
1
#BPMCHANGE 136
#SCROLL 0.955882
1
#BPMCHANGE 135
#SCROLL 0.962963
2
#BPMCHANGE 122
#SCROLL 1.06557
2,
#BPMCHANGE 131
#SCROLL 0.992366
10
#BPMCHANGE 132
#SCROLL 0.984848
11
#BPMCHANGE 129
#SCROLL 1.00775
20
#BPMCHANGE 125
#SCROLL 1.04
1110
#BPMCHANGE 142
#SCROLL 0.915493
10
#BPMCHANGE 124
#SCROLL 1.04839
20
#BPMCHANGE 129
#SCROLL 1.00775
11,
#BPMCHANGE 135
#SCROLL 0.962963
11
#BPMCHANGE 122
#SCROLL 1.06557
21
#BPMCHANGE 132
#SCROLL 0.984848
11
#BPMCHANGE 137
#SCROLL 0.948905
40,
#GOGOSTART
#BPMCHANGE 121
#SCROLL 1.07438
3010
#BPMCHANGE 125
#SCROLL 1.04
2012
#BPMCHANGE 143
#SCROLL 0.909091
1010
#BPMCHANGE 134
#SCROLL 0.970149
2010,
#BPMCHANGE 126
#SCROLL 1.03175
1121
#BPMCHANGE 144
#SCROLL 0.902778
0
#BPMCHANGE 127
#SCROLL 1.02362
1
#BPMCHANGE 127
#SCROLL 1.02362
4
#BPMCHANGE 117
#SCROLL 1.11111
2,
#BPMCHANGE 128
#SCROLL 1.01563
30
#BPMCHANGE 142
#SCROLL 0.915493
10
#BPMCHANGE 129
#SCROLL 1.00775
2012
#BPMCHANGE 131
#SCROLL 0.992366
1010
#BPMCHANGE 123
#SCROLL 1.05691
20
#BPMCHANGE 125
#SCROLL 1.04
10,
#BPMCHANGE 132
#SCROLL 0.984848
10
#BPMCHANGE 137
#SCROLL 0.948905
11
#BPMCHANGE 134
#SCROLL 0.970149
2010
#BPMCHANGE 127
#SCROLL 1.02362
00
#BPMCHANGE 135
#SCROLL 0.962963
10
#BPMCHANGE 125
#SCROLL 1.04
4020,
#BPMCHANGE 131
#SCROLL 0.992366
30102012
#BPMCHANGE 129
#SCROLL 1.00775
1010
#BPMCHANGE 126
#SCROLL 1.03175
2010,
#BPMCHANGE 132
#SCROLL 0.984848
1
#BPMCHANGE 135
#SCROLL 0.962963
1
#BPMCHANGE 137
#SCROLL 0.948905
21
#BPMCHANGE 117
#SCROLL 1.11111
0
#BPMCHANGE 137
#SCROLL 0.948905
14
#BPMCHANGE 130
#SCROLL 1
2,
#BPMCHANGE 134
#SCROLL 0.970149
30
#BPMCHANGE 118
#SCROLL 1.10169
10
#BPMCHANGE 128
#SCROLL 1.01563
201210
#BPMCHANGE 135
#SCROLL 0.962963
102010,
#BPMCHANGE 127
#SCROLL 1.02362
10112010
#BPMCHANGE 135
#SCROLL 0.962963
0010
#BPMCHANGE 137
#SCROLL 0.948905
2010,
#GOGOEND
#BPMCHANGE 121
#SCROLL 1.07438
3000
#BPMCHANGE 123
#SCROLL 1.05691
2000
#BPMCHANGE 133
#SCROLL 0.977444
101020
#BPMCHANGE 121
#SCROLL 1.07438
12,
#BPMCHANGE 125
#SCROLL 1.04
1
#BPMCHANGE 138
#SCROLL 0.942029
12
#BPMCHANGE 127
#SCROLL 1.02362
2
#BPMCHANGE 121
#SCROLL 1.07438
0
#BPMCHANGE 123
#SCROLL 1.05691
1
#BPMCHANGE 124
#SCROLL 1.04839
2
#BPMCHANGE 150
#SCROLL 0.866667
2,
#BPMCHANGE 130
#SCROLL 1
10
#BPMCHANGE 120
#SCROLL 1.08333
00
#BPMCHANGE 133
#SCROLL 0.977444
20
#BPMCHANGE 139
#SCROLL 0.935252
12
#BPMCHANGE 137
#SCROLL 0.948905
10
#BPMCHANGE 134
#SCROLL 0.970149
10
#BPMCHANGE 124
#SCROLL 1.04839
2012,
#BPMCHANGE 130
#SCROLL 1
1
#BPMCHANGE 138
#SCROLL 0.942029
1
#BPMCHANGE 135
#SCROLL 0.962963
2
#BPMCHANGE 122
#SCROLL 1.06557
1
#BPMCHANGE 121
#SCROLL 1.07438
0
#BPMCHANGE 121
#SCROLL 1.07438
1
#BPMCHANGE 148
#SCROLL 0.878378
2
#BPMCHANGE 129
#SCROLL 1.00775
2,
#BPMCHANGE 119
#SCROLL 1.09244
10
#BPMCHANGE 130
#SCROLL 1
00
#BPMCHANGE 137
#SCROLL 0.948905
2000
#BPMCHANGE 118
#SCROLL 1.10169
10
#BPMCHANGE 128
#SCROLL 1.01563
10
#BPMCHANGE 147
#SCROLL 0.884354
20
#BPMCHANGE 136
#SCROLL 0.955882
12,
#BPMCHANGE 128
#SCROLL 1.01563
1
#BPMCHANGE 118
#SCROLL 1.10169
1
#BPMCHANGE 126
#SCROLL 1.03175
220
#BPMCHANGE 144
#SCROLL 0.902778
1
#BPMCHANGE 123
#SCROLL 1.05691
2
#BPMCHANGE 135
#SCROLL 0.962963
2,
#BPMCHANGE 131
#SCROLL 0.992366
10
#BPMCHANGE 128
#SCROLL 1.01563
00
#BPMCHANGE 127
#SCROLL 1.02362
20
#BPMCHANGE 133
#SCROLL 0.977444
12
#BPMCHANGE 137
#SCROLL 0.948905
10
#BPMCHANGE 135
#SCROLL 0.962963
10
#BPMCHANGE 126
#SCROLL 1.03175
2012,
#BPMCHANGE 122
#SCROLL 1.06557
1
#BPMCHANGE 133
#SCROLL 0.977444
12
#BPMCHANGE 135
#SCROLL 0.962963
1
#BPMCHANGE 130
#SCROLL 1
0
#BPMCHANGE 128
#SCROLL 1.01563
1
#BPMCHANGE 126
#SCROLL 1.03175
2
#BPMCHANGE 133
#SCROLL 0.977444
2,
#GOGOSTART
#BPMCHANGE 137
#SCROLL 0.948905
30
#BPMCHANGE 134
#SCROLL 0.970149
10
#BPMCHANGE 128
#SCROLL 1.01563
20
#BPMCHANGE 125
#SCROLL 1.04
12
#BPMCHANGE 125
#SCROLL 1.04
10
#BPMCHANGE 122
#SCROLL 1.06557
1020
#BPMCHANGE 148
#SCROLL 0.878378
10,
#BPMCHANGE 139
#SCROLL 0.935252
10
#BPMCHANGE 133
#SCROLL 0.977444
10
#BPMCHANGE 128
#SCROLL 1.01563
20
#BPMCHANGE 133
#SCROLL 0.977444
10001
#BPMCHANGE 119
#SCROLL 1.09244
0
#BPMCHANGE 117
#SCROLL 1.11111
402
#BPMCHANGE 177
#SCROLL 0.734463
0,
#BPMCHANGE 133
#SCROLL 0.977444
301020
#BPMCHANGE 126
#SCROLL 1.03175
12
#BPMCHANGE 134
#SCROLL 0.970149
10
#BPMCHANGE 119
#SCROLL 1.09244
10
#BPMCHANGE 114
#SCROLL 1.14035
20
#BPMCHANGE 150
#SCROLL 0.866667
10,
#BPMCHANGE 123
#SCROLL 1.05691
10
#BPMCHANGE 128
#SCROLL 1.01563
11
#BPMCHANGE 131
#SCROLL 0.992366
20
#BPMCHANGE 139
#SCROLL 0.935252
10
#BPMCHANGE 130
#SCROLL 1
00
#BPMCHANGE 127
#SCROLL 1.02362
1040
#BPMCHANGE 125
#SCROLL 1.04
10,
30
#BPMCHANGE 147
#SCROLL 0.884354
10
#BPMCHANGE 130
#SCROLL 1
201210
#BPMCHANGE 123
#SCROLL 1.05691
1020
#BPMCHANGE 125
#SCROLL 1.04
10,
#BPMCHANGE 130
#SCROLL 1
10
#BPMCHANGE 142
#SCROLL 0.915493
10
#BPMCHANGE 134
#SCROLL 0.970149
20
#BPMCHANGE 136
#SCROLL 0.955882
1
#BPMCHANGE 134
#SCROLL 0.970149
0
#BPMCHANGE 126
#SCROLL 1.03175
0010
#BPMCHANGE 117
#SCROLL 1.11111
20
#BPMCHANGE 145
#SCROLL 0.896552
20,
#BPMCHANGE 126
#SCROLL 1.03175
10
#BPMCHANGE 138
#SCROLL 0.942029
10
#BPMCHANGE 134
#SCROLL 0.970149
20
#BPMCHANGE 129
#SCROLL 1.00775
12
#BPMCHANGE 136
#SCROLL 0.955882
1
#BPMCHANGE 115
#SCROLL 1.13043
0
#BPMCHANGE 126
#SCROLL 1.03175
102
#BPMCHANGE 135
#SCROLL 0.962963
010,
101
#BPMCHANGE 107
#SCROLL 1.21495
1
#BPMCHANGE 119
#SCROLL 1.09244
20
#BPMCHANGE 148
#SCROLL 0.878378
10
#BPMCHANGE 129
#SCROLL 1.00775
1010
#BPMCHANGE 125
#SCROLL 1.04
20
#BPMCHANGE 135
#SCROLL 0.962963
10,
#BPMCHANGE 127
#SCROLL 1.02362
2
#BPMCHANGE 123
#SCROLL 1.05691
12
#BPMCHANGE 128
#SCROLL 1.01563
1
#BPMCHANGE 137
#SCROLL 0.948905
2
#BPMCHANGE 128
#SCROLL 1.01563
122,
#BPMCHANGE 142
#SCROLL 0.915493
1
#BPMCHANGE 125
#SCROLL 1.04
12
#BPMCHANGE 124
#SCROLL 1.04839
2
#BPMCHANGE 122
#SCROLL 1.06557
2
#BPMCHANGE 138
#SCROLL 0.942029
2
#BPMCHANGE 141
#SCROLL 0.921986
2
#BPMCHANGE 144
#SCROLL 0.902778
2,
#BPMCHANGE 146
#SCROLL 0.890411
10
#BPMCHANGE 119
#SCROLL 1.09244
1020
#BPMCHANGE 133
#SCROLL 0.977444
12
#BPMCHANGE 136
#SCROLL 0.955882
10
#BPMCHANGE 137
#SCROLL 0.948905
10
#BPMCHANGE 131
#SCROLL 0.992366
20
#BPMCHANGE 127
#SCROLL 1.02362
20,
#BPMCHANGE 121
#SCROLL 1.07438
1
#BPMCHANGE 132
#SCROLL 0.984848
121
#BPMCHANGE 127
#SCROLL 1.02362
0
#BPMCHANGE 131
#SCROLL 0.992366
12
#BPMCHANGE 134
#SCROLL 0.970149
2,
#BPMCHANGE 131
#SCROLL 0.992366
10
#BPMCHANGE 123
#SCROLL 1.05691
10
#BPMCHANGE 125
#SCROLL 1.04
20
#BPMCHANGE 128
#SCROLL 1.01563
12
#BPMCHANGE 137
#SCROLL 0.948905
10
#BPMCHANGE 134
#SCROLL 0.970149
10
#BPMCHANGE 138
#SCROLL 0.942029
2
#BPMCHANGE 140
#SCROLL 0.928571
02
#BPMCHANGE 93
#SCROLL 1.39785
0,
#BPMCHANGE 133
#SCROLL 0.977444
10
#BPMCHANGE 126
#SCROLL 1.03175
10
#BPMCHANGE 135
#SCROLL 0.962963
20
#BPMCHANGE 139
#SCROLL 0.935252
11
#BPMCHANGE 142
#SCROLL 0.915493
1
#BPMCHANGE 118
#SCROLL 1.10169
010
#BPMCHANGE 126
#SCROLL 1.03175
20
#BPMCHANGE 133
#SCROLL 0.977444
20,
#GOGOEND
#BPMCHANGE 136
#SCROLL 0.955882
3000
#BPMCHANGE 126
#SCROLL 1.03175
2000
#BPMCHANGE 130
#SCROLL 1
1010
#BPMCHANGE 125
#SCROLL 1.04
20
#BPMCHANGE 117
#SCROLL 1.11111
12,
#BPMCHANGE 123
#SCROLL 1.05691
1
#BPMCHANGE 148
#SCROLL 0.878378
1
#BPMCHANGE 143
#SCROLL 0.909091
2
#BPMCHANGE 123
#SCROLL 1.05691
2
#BPMCHANGE 112
#SCROLL 1.16071
0
#BPMCHANGE 159
#SCROLL 0.81761
1
#BPMCHANGE 136
#SCROLL 0.955882
2
#BPMCHANGE 119
#SCROLL 1.09244
2,
#BPMCHANGE 117
#SCROLL 1.11111
100
#BPMCHANGE 144
#SCROLL 0.902778
0
#BPMCHANGE 136
#SCROLL 0.955882
20
#BPMCHANGE 104
#SCROLL 1.25
1
#BPMCHANGE 162
#SCROLL 0.802469
2
#BPMCHANGE 113
#SCROLL 1.15044
10
#BPMCHANGE 166
#SCROLL 0.783133
10
#BPMCHANGE 201
#SCROLL 0.646766
200
#BPMCHANGE 60
#SCROLL 2.16667
0,
#BPMCHANGE 135
#SCROLL 0.962963
1
#BPMCHANGE 138
#SCROLL 0.942029
1
#BPMCHANGE 127
#SCROLL 1.02362
2
#BPMCHANGE 109
#SCROLL 1.19266
1
#BPMCHANGE 125
#SCROLL 1.04
0
#BPMCHANGE 153
#SCROLL 0.849673
1
#BPMCHANGE 138
#SCROLL 0.942029
2
#BPMCHANGE 128
#SCROLL 1.01563
2,
#BPMCHANGE 122
#SCROLL 1.06557
1000
#BPMCHANGE 147
#SCROLL 0.884354
20
#BPMCHANGE 109
#SCROLL 1.19266
1
#BPMCHANGE 142
#SCROLL 0.915493
2
#BPMCHANGE 145
#SCROLL 0.896552
10
#BPMCHANGE 120
#SCROLL 1.08333
10
#BPMCHANGE 135
#SCROLL 0.962963
2012,
1
#BPMCHANGE 134
#SCROLL 0.970149
1
#BPMCHANGE 118
#SCROLL 1.10169
2
#BPMCHANGE 149
#SCROLL 0.872483
2
#BPMCHANGE 127
#SCROLL 1.02362
0
#BPMCHANGE 119
#SCROLL 1.09244
1
#BPMCHANGE 126
#SCROLL 1.03175
2
#BPMCHANGE 128
#SCROLL 1.01563
2,
#BPMCHANGE 136
#SCROLL 0.955882
100020
#BPMCHANGE 123
#SCROLL 1.05691
1
#BPMCHANGE 140
#SCROLL 0.928571
2
#BPMCHANGE 133
#SCROLL 0.977444
10
#BPMCHANGE 109
#SCROLL 1.19266
10
#BPMCHANGE 128
#SCROLL 1.01563
20
#BPMCHANGE 133
#SCROLL 0.977444
12,
#BPMCHANGE 126
#SCROLL 1.03175
1
#BPMCHANGE 139
#SCROLL 0.935252
1
#BPMCHANGE 117
#SCROLL 1.11111
2
#BPMCHANGE 133
#SCROLL 0.977444
1
#BPMCHANGE 114
#SCROLL 1.14035
0
#BPMCHANGE 158
#SCROLL 0.822785
0
#BPMCHANGE 123
#SCROLL 1.05691
4
#BPMCHANGE 152
#SCROLL 0.855263
0,
#GOGOSTART
#BPMCHANGE 138
#SCROLL 0.942029
30
#BPMCHANGE 127
#SCROLL 1.02362
10
#BPMCHANGE 122
#SCROLL 1.06557
20
#BPMCHANGE 126
#SCROLL 1.03175
1210
#BPMCHANGE 131
#SCROLL 0.992366
10
#BPMCHANGE 125
#SCROLL 1.04
2010,
1
#BPMCHANGE 153
#SCROLL 0.849673
1
#BPMCHANGE 139
#SCROLL 0.935252
2
#BPMCHANGE 136
#SCROLL 0.955882
1
#BPMCHANGE 124
#SCROLL 1.04839
01
#BPMCHANGE 136
#SCROLL 0.955882
2
#BPMCHANGE 119
#SCROLL 1.09244
2,
#BPMCHANGE 135
#SCROLL 0.962963
10
#BPMCHANGE 133
#SCROLL 0.977444
10
#BPMCHANGE 125
#SCROLL 1.04
20
#BPMCHANGE 103
#SCROLL 1.26214
1
#BPMCHANGE 139
#SCROLL 0.935252
21
#BPMCHANGE 145
#SCROLL 0.896552
0102010,
#BPMCHANGE 120
#SCROLL 1.08333
1
#BPMCHANGE 114
#SCROLL 1.14035
0112010
#BPMCHANGE 151
#SCROLL 0.860927
00
#BPMCHANGE 130
#SCROLL 1
10
#BPMCHANGE 127
#SCROLL 1.02362
40
#BPMCHANGE 151
#SCROLL 0.860927
10,
#BPMCHANGE 125
#SCROLL 1.04
30
#BPMCHANGE 132
#SCROLL 0.984848
10
#BPMCHANGE 125
#SCROLL 1.04
2012
#BPMCHANGE 134
#SCROLL 0.970149
1010
#BPMCHANGE 138
#SCROLL 0.942029
20
#BPMCHANGE 123
#SCROLL 1.05691
10,
#BPMCHANGE 126
#SCROLL 1.03175
10
#BPMCHANGE 139
#SCROLL 0.935252
10
#BPMCHANGE 127
#SCROLL 1.02362
2010
#BPMCHANGE 134
#SCROLL 0.970149
0
#BPMCHANGE 133
#SCROLL 0.977444
0
#BPMCHANGE 138
#SCROLL 0.942029
1020
#BPMCHANGE 123
#SCROLL 1.05691
20,
#BPMCHANGE 130
#SCROLL 1
1010
#BPMCHANGE 125
#SCROLL 1.04
20
#BPMCHANGE 132
#SCROLL 0.984848
1210
#BPMCHANGE 117
#SCROLL 1.11111
10
#BPMCHANGE 112
#SCROLL 1.16071
20
#BPMCHANGE 163
#SCROLL 0.797546
10,
#BPMCHANGE 130
#SCROLL 1
1011
#BPMCHANGE 133
#SCROLL 0.977444
201010
#BPMCHANGE 128
#SCROLL 1.01563
10
#BPMCHANGE 131
#SCROLL 0.992366
2010,
#BPMCHANGE 126
#SCROLL 1.03175
2
#BPMCHANGE 129
#SCROLL 1.00775
1
#BPMCHANGE 116
#SCROLL 1.12069
2
#BPMCHANGE 142
#SCROLL 0.915493
1
#BPMCHANGE 127
#SCROLL 1.02362
21
#BPMCHANGE 119
#SCROLL 1.09244
2
#BPMCHANGE 145
#SCROLL 0.896552
2,
#BPMCHANGE 131
#SCROLL 0.992366
11222
#BPMCHANGE 138
#SCROLL 0.942029
22
#BPMCHANGE 115
#SCROLL 1.13043
2,
#BPMCHANGE 131
#SCROLL 0.992366
10102012
#BPMCHANGE 135
#SCROLL 0.962963
10
#BPMCHANGE 121
#SCROLL 1.07438
102020,
#BPMCHANGE 147
#SCROLL 0.884354
1
#BPMCHANGE 138
#SCROLL 0.942029
1
#BPMCHANGE 131
#SCROLL 0.992366
2101
#BPMCHANGE 123
#SCROLL 1.05691
2
#BPMCHANGE 134
#SCROLL 0.970149
2,
#BPMCHANGE 124
#SCROLL 1.04839
10
#BPMCHANGE 130
#SCROLL 1
10
#BPMCHANGE 121
#SCROLL 1.07438
20
#BPMCHANGE 144
#SCROLL 0.902778
12
#BPMCHANGE 122
#SCROLL 1.06557
10
#BPMCHANGE 129
#SCROLL 1.00775
10
#BPMCHANGE 111
#SCROLL 1.17117
20
#BPMCHANGE 156
#SCROLL 0.833333
20,
#BPMCHANGE 130
#SCROLL 1
10102011
#BPMCHANGE 140
#SCROLL 0.928571
1
#BPMCHANGE 134
#SCROLL 0.970149
010
#BPMCHANGE 123
#SCROLL 1.05691
20
#BPMCHANGE 128
#SCROLL 1.01563
20,
#BPMCHANGE 131
#SCROLL 0.992366
10102012
#BPMCHANGE 127
#SCROLL 1.02362
10102020,
#BPMCHANGE 125
#SCROLL 1.04
1010
#BPMCHANGE 145
#SCROLL 0.896552
20
#BPMCHANGE 133
#SCROLL 0.977444
1
#BPMCHANGE 137
#SCROLL 0.948905
000
#BPMCHANGE 127
#SCROLL 1.02362
102020,
#BPMCHANGE 121
#SCROLL 1.07438
10
#BPMCHANGE 137
#SCROLL 0.948905
10
#BPMCHANGE 129
#SCROLL 1.00775
20
#BPMCHANGE 126
#SCROLL 1.03175
12
#BPMCHANGE 129
#SCROLL 1.00775
1010
#BPMCHANGE 125
#SCROLL 1.04
20
#BPMCHANGE 129
#SCROLL 1.00775
20,
#BPMCHANGE 139
#SCROLL 0.935252
1010
#BPMCHANGE 134
#SCROLL 0.970149
20
#BPMCHANGE 125
#SCROLL 1.04
11
#BPMCHANGE 117
#SCROLL 1.11111
10
#BPMCHANGE 134
#SCROLL 0.970149
10
#BPMCHANGE 121
#SCROLL 1.07438
40
#BPMCHANGE 150
#SCROLL 0.866667
00,
#MEASURE 2/4
#GOGOEND
#BPMCHANGE 134
#SCROLL 0.970149
3,
#END