generated from DragonRatTiger/Custom-Charts
660 lines
7.2 KiB
Plaintext
660 lines
7.2 KiB
Plaintext
TITLE:ALIVE
|
|
TITLEJA:ALIVE
|
|
SUBTITLE:--ClariS / Lycoris Recoil
|
|
SUBTITLEJA:ClariS「リコリス・リコイル」より
|
|
BPM:175.5
|
|
BGMOVIE:ALIVE.mp4
|
|
PREIMAGE:ALIVE.png
|
|
WAVE:ALIVE.ogg
|
|
OFFSET:-0.630
|
|
DEMOSTART:54.657
|
|
MAKER:Colin
|
|
|
|
COURSE:Oni
|
|
LEVEL:8
|
|
SCOREINIT:
|
|
SCOREDIFF:
|
|
NOTESDESIGNER3:Colin
|
|
|
|
#START
|
|
22210112,
|
|
0222,
|
|
10202011,
|
|
02010001,
|
|
20210112,
|
|
#BPMCHANGE 207
|
|
#SCROLL 0.847826
|
|
0
|
|
#BPMCHANGE 180
|
|
#SCROLL 0.975
|
|
222,
|
|
#GOGOSTART
|
|
1020102210201120,
|
|
1020112010221120,
|
|
1020102210201120,
|
|
1020112010201122,
|
|
1020112010201122,
|
|
1020102210201120,
|
|
1020102210201120,
|
|
1020202210112010,
|
|
#GOGOEND
|
|
#BPMCHANGE 174
|
|
#SCROLL 1.00862
|
|
11222020,
|
|
10211120,
|
|
20212021,
|
|
22250080,
|
|
11212010,
|
|
10211112,
|
|
10102022,
|
|
1010201020221020,
|
|
30201120,
|
|
#BPMCHANGE 178
|
|
#SCROLL 0.985955
|
|
12103030,
|
|
#BPMCHANGE 176
|
|
#SCROLL 0.997159
|
|
30112010,
|
|
12114030,
|
|
#BPMCHANGE 178
|
|
#SCROLL 0.985955
|
|
3010201110102022,
|
|
1010202210102011,
|
|
#BPMCHANGE 180
|
|
#SCROLL 0.975
|
|
1010201120102011,
|
|
#BPMCHANGE 175
|
|
#SCROLL 1.00286
|
|
2010201120102000,
|
|
#BPMCHANGE 179
|
|
#SCROLL 0.980447
|
|
300000000000100010001000100010001000200100100100,
|
|
2040000000112010,
|
|
#GOGOSTART
|
|
#BPMCHANGE 180
|
|
#SCROLL 0.975
|
|
1020102210201120,
|
|
1020112010221020,
|
|
1020102210201120,
|
|
1020112010221120,
|
|
1020102211201020,
|
|
1020112210201020,
|
|
3020112000302020,
|
|
102010101022
|
|
#BPMCHANGE 183
|
|
#SCROLL 0.959016
|
|
2211,
|
|
#BPMCHANGE 180
|
|
#SCROLL 0.975
|
|
1020
|
|
#BPMCHANGE 178
|
|
#SCROLL 0.985955
|
|
11201020
|
|
#BPMCHANGE 182
|
|
#SCROLL 0.964286
|
|
1120,
|
|
1020112010201120,
|
|
#BPMCHANGE 177
|
|
#SCROLL 0.991525
|
|
1020112012021022,
|
|
#BPMCHANGE 191
|
|
#SCROLL 0.918848
|
|
1020
|
|
#BPMCHANGE 174
|
|
#SCROLL 1.00862
|
|
1122
|
|
#BPMCHANGE 186
|
|
#SCROLL 0.943548
|
|
1022
|
|
#BPMCHANGE 178
|
|
#SCROLL 0.985955
|
|
1120,
|
|
#BPMCHANGE 177
|
|
#SCROLL 0.991525
|
|
1020
|
|
#BPMCHANGE 179
|
|
#SCROLL 0.980447
|
|
1120
|
|
#BPMCHANGE 180
|
|
#SCROLL 0.975
|
|
1022
|
|
#BPMCHANGE 183.5
|
|
#SCROLL 0.956403
|
|
1022,
|
|
1020
|
|
#BPMCHANGE 178
|
|
#SCROLL 0.985955
|
|
11201020
|
|
#BPMCHANGE 180
|
|
#SCROLL 0.975
|
|
1022,
|
|
1020
|
|
#BPMCHANGE 178
|
|
#SCROLL 0.985955
|
|
1120
|
|
#BPMCHANGE 180
|
|
#SCROLL 0.975
|
|
1020
|
|
#BPMCHANGE 183
|
|
#SCROLL 0.959016
|
|
1122,
|
|
#BPMCHANGE 182
|
|
#SCROLL 0.964286
|
|
1020
|
|
#BPMCHANGE 177
|
|
#SCROLL 0.991525
|
|
2010
|
|
#BPMCHANGE 180
|
|
#SCROLL 0.975
|
|
2011
|
|
#BPMCHANGE 179
|
|
#SCROLL 0.980447
|
|
1111,
|
|
#BPMCHANGE 180
|
|
#SCROLL 0.975
|
|
10120121,
|
|
11120121,
|
|
1000111011101011,
|
|
1011201122112022,
|
|
1010202210102011,
|
|
1010201120102020,
|
|
1022102010102010,
|
|
1020202211112010,
|
|
#GOGOEND
|
|
10110111,
|
|
1000101000112010,
|
|
#GOGOSTART
|
|
1010202210102011,
|
|
1010202210102010,
|
|
40140140,
|
|
14014121,
|
|
#GOGOEND
|
|
0,
|
|
#END
|
|
|
|
COURSE:Hard
|
|
LEVEL:7
|
|
SCOREINIT:
|
|
SCOREDIFF:
|
|
NOTESDESIGNER2:Colin
|
|
|
|
#START
|
|
#SCROLL 1
|
|
22110112,
|
|
0111,
|
|
10201021,
|
|
02010001,
|
|
10210121,
|
|
#BPMCHANGE 207
|
|
#SCROLL 0.847826
|
|
0
|
|
#BPMCHANGE 180
|
|
#SCROLL 0.975
|
|
000,
|
|
#GOGOSTART
|
|
1000201110102000,
|
|
1000201110102000,
|
|
1000201110102000,
|
|
1000201110102000,
|
|
1000201110102000,
|
|
1000201110102000,
|
|
1000201110102000,
|
|
1000201110102000,
|
|
#GOGOEND
|
|
#BPMCHANGE 174
|
|
#SCROLL 0.975
|
|
10201120,
|
|
10210120,
|
|
10201120,
|
|
10210120,
|
|
10201120,
|
|
10210120,
|
|
10201120,
|
|
10210120,
|
|
1111,
|
|
#BPMCHANGE 178
|
|
#SCROLL 0.975
|
|
12101010,
|
|
#BPMCHANGE 176
|
|
#SCROLL 0.975
|
|
10211020,
|
|
1211,
|
|
#BPMCHANGE 178
|
|
#SCROLL 0.975
|
|
1010200011102000,
|
|
1010200011102000,
|
|
#BPMCHANGE 180
|
|
#SCROLL 0.975
|
|
1010200011102000,
|
|
#BPMCHANGE 175
|
|
#SCROLL 0.975
|
|
30330306,
|
|
#BPMCHANGE 179
|
|
#SCROLL 0.975
|
|
00000008,
|
|
44000000,
|
|
#GOGOSTART
|
|
#BPMCHANGE 180
|
|
#SCROLL 0.975
|
|
1000201110102010,
|
|
01250080,
|
|
1000201110102010,
|
|
01210105,
|
|
0000000800001000,
|
|
1212,
|
|
6,
|
|
000000
|
|
#BPMCHANGE 183
|
|
#SCROLL 0.975
|
|
08,
|
|
#BPMCHANGE 180
|
|
#SCROLL 0.975
|
|
1000
|
|
#BPMCHANGE 178
|
|
#SCROLL 0.975
|
|
20111010
|
|
#BPMCHANGE 182
|
|
#SCROLL 0.975
|
|
2010,
|
|
01250080,
|
|
#BPMCHANGE 177
|
|
#SCROLL 0.975
|
|
1000201110102010,
|
|
#BPMCHANGE 191
|
|
#SCROLL 0.975
|
|
01
|
|
#BPMCHANGE 174
|
|
#SCROLL 0.975
|
|
21
|
|
#BPMCHANGE 186
|
|
#SCROLL 0.975
|
|
01
|
|
#BPMCHANGE 178
|
|
#SCROLL 0.975
|
|
05,
|
|
#BPMCHANGE 177
|
|
#SCROLL 0.975
|
|
0000
|
|
#BPMCHANGE 179
|
|
#SCROLL 0.975
|
|
0008
|
|
#BPMCHANGE 180
|
|
#SCROLL 0.975
|
|
0000
|
|
#BPMCHANGE 183.5
|
|
#SCROLL 0.975
|
|
1000,
|
|
1
|
|
#BPMCHANGE 178
|
|
#SCROLL 0.975
|
|
21
|
|
#BPMCHANGE 180
|
|
#SCROLL 0.975
|
|
2,
|
|
6
|
|
#BPMCHANGE 178
|
|
#SCROLL 0.975
|
|
0
|
|
#BPMCHANGE 180
|
|
#SCROLL 0.975
|
|
0
|
|
#BPMCHANGE 183
|
|
#SCROLL 0.975
|
|
0,
|
|
#BPMCHANGE 182
|
|
#SCROLL 0.975
|
|
00
|
|
#BPMCHANGE 177
|
|
#SCROLL 0.975
|
|
00
|
|
#BPMCHANGE 180
|
|
#SCROLL 0.975
|
|
00
|
|
#BPMCHANGE 179
|
|
#SCROLL 0.975
|
|
08,
|
|
#BPMCHANGE 180
|
|
#SCROLL 0.975
|
|
10210120,
|
|
10210120,
|
|
10111012,
|
|
10101011,
|
|
1002,
|
|
10210120,
|
|
10120120,
|
|
1020101110102000,
|
|
#GOGOEND
|
|
3,
|
|
3002,
|
|
#GOGOSTART
|
|
1000201110102000,
|
|
1000201110102000,
|
|
30030030,
|
|
30000003,
|
|
#GOGOEND
|
|
#END
|
|
|
|
COURSE:Normal
|
|
LEVEL:7
|
|
SCOREINIT:
|
|
SCOREDIFF:
|
|
NOTESDESIGNER1:Colin
|
|
|
|
#START
|
|
#SCROLL 1
|
|
20110102,
|
|
0111,
|
|
10201011,
|
|
02010001,
|
|
10110101,
|
|
#BPMCHANGE 207
|
|
#SCROLL 0.847826
|
|
0
|
|
#BPMCHANGE 180
|
|
#SCROLL 0.975
|
|
000,
|
|
#GOGOSTART
|
|
1210,
|
|
1210,
|
|
1210,
|
|
1210,
|
|
1210,
|
|
1210,
|
|
1210,
|
|
1210,
|
|
#GOGOEND
|
|
#BPMCHANGE 174
|
|
#SCROLL 0.975
|
|
1012,
|
|
1002,
|
|
1012,
|
|
10010100,
|
|
1212,
|
|
10010120,
|
|
1212,
|
|
10210020,
|
|
1010,
|
|
#BPMCHANGE 178
|
|
#SCROLL 0.975
|
|
1111,
|
|
#BPMCHANGE 176
|
|
#SCROLL 0.975
|
|
1212,
|
|
1211,
|
|
#BPMCHANGE 178
|
|
#SCROLL 0.975
|
|
11201020,
|
|
1212,
|
|
#BPMCHANGE 180
|
|
#SCROLL 0.975
|
|
1212,
|
|
#BPMCHANGE 175
|
|
#SCROLL 0.975
|
|
30330306,
|
|
#BPMCHANGE 179
|
|
#SCROLL 0.975
|
|
00000008,
|
|
44000000,
|
|
#GOGOSTART
|
|
#BPMCHANGE 180
|
|
#SCROLL 0.975
|
|
30403033,
|
|
03060080,
|
|
30430303,
|
|
03030306,
|
|
00080010,
|
|
1212,
|
|
6,
|
|
000000
|
|
#BPMCHANGE 183
|
|
#SCROLL 0.975
|
|
08,
|
|
#BPMCHANGE 180
|
|
#SCROLL 0.975
|
|
30
|
|
#BPMCHANGE 178
|
|
#SCROLL 0.975
|
|
4030
|
|
#BPMCHANGE 182
|
|
#SCROLL 0.975
|
|
33,
|
|
03060080,
|
|
#BPMCHANGE 177
|
|
#SCROLL 0.975
|
|
50000008,
|
|
#BPMCHANGE 191
|
|
#SCROLL 0.975
|
|
5
|
|
#BPMCHANGE 174
|
|
#SCROLL 0.975
|
|
0
|
|
#BPMCHANGE 186
|
|
#SCROLL 0.975
|
|
0
|
|
#BPMCHANGE 178
|
|
#SCROLL 0.975
|
|
0,
|
|
#BPMCHANGE 177
|
|
#SCROLL 0.975
|
|
00
|
|
#BPMCHANGE 179
|
|
#SCROLL 0.975
|
|
00
|
|
#BPMCHANGE 180
|
|
#SCROLL 0.975
|
|
08
|
|
#BPMCHANGE 183.5
|
|
#SCROLL 0.975
|
|
10,
|
|
1
|
|
#BPMCHANGE 178
|
|
#SCROLL 0.975
|
|
21
|
|
#BPMCHANGE 180
|
|
#SCROLL 0.975
|
|
2,
|
|
6
|
|
#BPMCHANGE 178
|
|
#SCROLL 0.975
|
|
0
|
|
#BPMCHANGE 180
|
|
#SCROLL 0.975
|
|
0
|
|
#BPMCHANGE 183
|
|
#SCROLL 0.975
|
|
0,
|
|
#BPMCHANGE 182
|
|
#SCROLL 0.975
|
|
00
|
|
#BPMCHANGE 177
|
|
#SCROLL 0.975
|
|
00
|
|
#BPMCHANGE 180
|
|
#SCROLL 0.975
|
|
00
|
|
#BPMCHANGE 179
|
|
#SCROLL 0.975
|
|
08,
|
|
#BPMCHANGE 180
|
|
#SCROLL 0.975
|
|
10010020,
|
|
10010020,
|
|
1111,
|
|
10101011,
|
|
1002,
|
|
10210020,
|
|
10120020,
|
|
12001120,
|
|
#GOGOEND
|
|
3,
|
|
3002,
|
|
#GOGOSTART
|
|
1210,
|
|
1210,
|
|
30030030,
|
|
30000003,
|
|
#GOGOEND
|
|
#END
|
|
|
|
COURSE:Easy
|
|
LEVEL:4
|
|
SCOREINIT:
|
|
SCOREDIFF:
|
|
NOTESDESIGNER0:Colin
|
|
|
|
#START
|
|
#SCROLL 1
|
|
20010002,
|
|
,
|
|
1,
|
|
02010000,
|
|
10010101,
|
|
#BPMCHANGE 207
|
|
#SCROLL 0.847826
|
|
0
|
|
#BPMCHANGE 180
|
|
#SCROLL 0.975
|
|
000,
|
|
#GOGOSTART
|
|
1010,
|
|
1010,
|
|
1010,
|
|
1010,
|
|
1010,
|
|
1010,
|
|
1010,
|
|
1010,
|
|
#GOGOEND
|
|
#BPMCHANGE 174
|
|
#SCROLL 0.975
|
|
2,
|
|
2,
|
|
2,
|
|
2,
|
|
2,
|
|
2,
|
|
2,
|
|
2,
|
|
2,
|
|
#BPMCHANGE 178
|
|
#SCROLL 0.975
|
|
1111,
|
|
#BPMCHANGE 176
|
|
#SCROLL 0.975
|
|
1010,
|
|
1111,
|
|
#BPMCHANGE 178
|
|
#SCROLL 0.975
|
|
1012,
|
|
1012,
|
|
#BPMCHANGE 180
|
|
#SCROLL 0.975
|
|
1010,
|
|
#BPMCHANGE 175
|
|
#SCROLL 0.975
|
|
30330306,
|
|
#BPMCHANGE 179
|
|
#SCROLL 0.975
|
|
00000008,
|
|
44000000,
|
|
#GOGOSTART
|
|
#BPMCHANGE 180
|
|
#SCROLL 0.975
|
|
30003003,
|
|
03060080,
|
|
30030303,
|
|
03030306,
|
|
00080010,
|
|
0202,
|
|
6,
|
|
000000
|
|
#BPMCHANGE 183
|
|
#SCROLL 0.975
|
|
08,
|
|
#BPMCHANGE 180
|
|
#SCROLL 0.975
|
|
30
|
|
#BPMCHANGE 178
|
|
#SCROLL 0.975
|
|
0030
|
|
#BPMCHANGE 182
|
|
#SCROLL 0.975
|
|
03,
|
|
03060080,
|
|
#BPMCHANGE 177
|
|
#SCROLL 0.975
|
|
50000008,
|
|
#BPMCHANGE 191
|
|
#SCROLL 0.975
|
|
5
|
|
#BPMCHANGE 174
|
|
#SCROLL 0.975
|
|
0
|
|
#BPMCHANGE 186
|
|
#SCROLL 0.975
|
|
0
|
|
#BPMCHANGE 178
|
|
#SCROLL 0.975
|
|
0,
|
|
#BPMCHANGE 177
|
|
#SCROLL 0.975
|
|
00
|
|
#BPMCHANGE 179
|
|
#SCROLL 0.975
|
|
00
|
|
#BPMCHANGE 180
|
|
#SCROLL 0.975
|
|
08
|
|
#BPMCHANGE 183.5
|
|
#SCROLL 0.975
|
|
10,
|
|
0
|
|
#BPMCHANGE 178
|
|
#SCROLL 0.975
|
|
21
|
|
#BPMCHANGE 180
|
|
#SCROLL 0.975
|
|
2,
|
|
6
|
|
#BPMCHANGE 178
|
|
#SCROLL 0.975
|
|
0
|
|
#BPMCHANGE 180
|
|
#SCROLL 0.975
|
|
0
|
|
#BPMCHANGE 183
|
|
#SCROLL 0.975
|
|
0,
|
|
#BPMCHANGE 182
|
|
#SCROLL 0.975
|
|
00
|
|
#BPMCHANGE 177
|
|
#SCROLL 0.975
|
|
00
|
|
#BPMCHANGE 180
|
|
#SCROLL 0.975
|
|
00
|
|
#BPMCHANGE 179
|
|
#SCROLL 0.975
|
|
08,
|
|
#BPMCHANGE 180
|
|
#SCROLL 0.975
|
|
10010000,
|
|
10010000,
|
|
1011,
|
|
1011,
|
|
1002,
|
|
10010020,
|
|
10020020,
|
|
02001020,
|
|
#GOGOEND
|
|
3,
|
|
3002,
|
|
#GOGOSTART
|
|
1010,
|
|
1010,
|
|
30030030,
|
|
30000003,
|
|
#GOGOEND
|
|
#END
|