Files
Colins_Custom_Charts/02 Anime/BOY/BOY.tja
T
2025-06-11 19:53:16 -04:00

71 lines
1.8 KiB
Plaintext

TITLE:BOY
TITLEJA:BOY
PREIMAGE:BOY.jpg
SUBTITLE:--King Gnu / Ranking of Kings
SUBTITLEJA:King Gnu「王様ランキング」より
BPM:109.978
WAVE:BOY.ogg
OFFSET:-0.198
DEMOSTART:63.558
MAKER:Colin
COURSE:Oni
LEVEL:8
BALLOON:
SCOREINIT:
SCOREDIFF:
NOTESDESIGNER3:Colin
#START
#SCROLL 1.5
0000100210201002,
1020100040121001,
2000000000002000100000002000202020001002000020010000000010000000,
1021212212221222,
10202020100000002220000010000000,
2001202040122020,
2020122122121012,
10201000100010002010202020001111,
2010
#GOGOSTART
300012012210,
2000100000000000300000000000100020000200100020002000200010000000,
1000200000002000200010002000200010000100200000002000010020000000,
2000010020000000101010102000000010101010200000001010101020000000,
101010102
#GOGOEND
0000000100002000000200000002000000010000000000010000000,
2101200012210020,
1000200000001000200020000000200010000000200001000000000010000000,
10001000111120001111200011112000,
101010102
0000000100002000000200000002000000010000000000010000000,
2101200012210020,
1000200000001000200020000000200000020000000020001000000010000000,
10001000111120001111200011112000,
11112000000010102000002010002010,
0020102120021221,
0210201111011021,
0020100210021002,
1011201102010201,
2212010122120202,
0202211101220221,
2202101202212112,
2120212212122121,
1010
#GOGOSTART
1010400010002010001020111020,
1000000020002000100000002000010020202000100001002000000020000020,
1000000010000000100000002000202020001002000020010000000020000000,
1000000020000100200000002000000010000000200000002000100020002000,
1000200020002000100000002000000020002000000020010000200000001000,
2000202020002000100000001000000040000000100002001000000020000000,
2000000020000000400000002000202020001002000020010000000010000000,
10001000100000003000000011111111,
11111111600000000000000000000000,
0800,
04
#GOGOEND
00,
00002210000000000000000000000000,
#END