Files
Colins_Custom_Charts/02 Anime/Comedy/Comedy.tja
T
2025-06-11 19:53:16 -04:00

317 lines
2.6 KiB
Plaintext
Raw Blame History

This file contains ambiguous Unicode characters
This file contains Unicode characters that might be confused with other characters. If you think that this is intentional, you can safely ignore this warning. Use the Escape button to reveal them.
TITLE:Comedy
TITLEJA:Comedy
SUBTITLE:--Gen Hoshino / SPY×FAMILY
SUBTITLEJA:星野源「SPY×FAMILY」より
BPM:176
PREIMAGE:Comedy.jpg
WAVE:Comedy.ogg
OFFSET:-3.342
DEMOSTART:58.569
MAKER:Colin
COURSE:Oni
LEVEL:6
BALLOON:
SCOREINIT:
SCOREDIFF:
NOTESDESIGNER3:Colin
#START
202101202102,
100202101200,
102101200101,
201200101200,
101200100202,
100201202101,
200202101200,
100202101200,
100201200101,
200100201010,
101001200002,
100101200500,
000800200010200000500000,
000800000010200000500000,
00081050,
000800100020100010200020,
100200102102,
100201200102,
100200100201,
200102101200,
101202101201,
100101200100,
200101202100,
200201201200,
3232,
300100201020,
101002101202,
101202100500,
0,
0815,
0,
000800100020100010200000,
22,
21,
100202100000,
111211,
200002100102,
100202101200,
10205008,
5000000000008011,
100100000100200020100010,
#GOGOSTART
202101201200,
400100202101,
202101201200,
400100202101,
202101201200,
400100202010,
50085008,
100200202101,
202101201200,
400100202101,
202101201200,
400100202101,
202101201200,
400100202020,
50085008,
100102101200,
5000008
#GOGOEND
00010200020000100,
020000001000000000100000,
100202101200,
500000805000000805000080,
5,
00000008,
#END
COURSE:Hard
LEVEL:4
BALLOON:
SCOREINIT:
SCOREDIFF:
NOTESDESIGNER2:Colin
#START
1212,
100101200000,
100101200000,
100101200000,
11,
11,
1,
100102101000,
22,
25,
000000800002,
1115,
0,
08000050,
0,
000000000800100020100020,
1212,
1110,
100101200000,
100101200000,
11,
11,
1,
100101201000,
22,
25,
08,
1115,
0,
08001050,
0,
0008,
22,
21,
100101200000,
111111,
21,
100101200000,
100101200000,
1000000010000011,
100100000100200020100000,
#GOGOSTART
100202100200,
400000202100,
100202100200,
400000202100,
100202100200,
4,
5,
000800202100,
100202100200,
400000202100,
100202100200,
400000202100,
100202100200,
43,
6008
#GOGOEND
3000,
300303000300,
32,
1001,
2001,
200000002000000200000000,
5,
0008,
#END
COURSE:Normal
LEVEL:4
BALLOON:
SCOREINIT:
SCOREDIFF:
NOTESDESIGNER1:Colin
#START
12,
1120,
12,
1120,
12,
1120,
12,
1120,
12,
1120,
12,
1125,
0,
0805,
0,
0008,
12,
1120,
12,
1120,
12,
1120,
12,
1120,
12,
1120,
12,
1125,
0,
0805,
0,
0008,
22,
21,
12,
1120,
12,
1120,
12,
1120,
0012,
#GOGOSTART
1222,
1012,
1222,
1012,
1222,
11,
5,
0812,
1222,
1012,
1222,
1012,
1222,
1012,
1222,
11,
#GOGOEND
1,
0,
0,
0,
5,
0008,
#END
COURSE:Easy
LEVEL:2
BALLOON:
SCOREINIT:
SCOREDIFF:
NOTESDESIGNER0:Colin
#START
12,
12,
12,
12,
12,
12,
12,
12,
12,
12,
12,
1025,
0,
0805,
0,
0008,
12,
12,
12,
12,
12,
12,
12,
12,
12,
12,
12,
1025,
0,
0805,
0,
0008,
2,
21,
12,
12,
12,
12,
12,
12,
01,
#GOGOSTART
1202,
1012,
0002,
1012,
0002,
11,
5,
0812,
0002,
1012,
0002,
1012,
0002,
1012,
0002,
#GOGOEND
11,
1,
0,
0,
0,
5,
0008,
#END