generated from DragonRatTiger/Custom-Charts
373 lines
3.0 KiB
Plaintext
373 lines
3.0 KiB
Plaintext
TITLE:Daten
|
|
TITLEJA:堕天
|
|
SUBTITLE:--Creepy Nuts / Call of the Night
|
|
SUBTITLEJA:Creepy Nuts「よふかしのうた」より
|
|
PREIMAGE:Daten.jpg
|
|
BPM:200
|
|
WAVE:Daten.ogg
|
|
OFFSET:-0.813
|
|
DEMOSTART:64.413
|
|
MAKER:Colin
|
|
|
|
COURSE:Oni
|
|
LEVEL:8
|
|
BALLOON:
|
|
SCOREINIT:
|
|
SCOREDIFF:
|
|
NOTESDESIGNER3:Colin
|
|
|
|
|
|
#START
|
|
00000111,
|
|
10211122,
|
|
10211120,
|
|
11212121,
|
|
10211120,
|
|
11211121,
|
|
11211120,
|
|
11211121,
|
|
11212122,
|
|
11212122,
|
|
11212122,
|
|
10211122,
|
|
10212120,
|
|
11212122,
|
|
11211122,
|
|
11221122,
|
|
1010201020222020,
|
|
101202202202,
|
|
100010200200100100200100,
|
|
101202202202,
|
|
1020201010222020,
|
|
101202202202,
|
|
100000001000100000100100200000002000100000000000,
|
|
101202202202,
|
|
1000100010112020,
|
|
#GOGOSTART
|
|
11201120,
|
|
11211120,
|
|
11201120,
|
|
11211120,
|
|
11211120,
|
|
11211120,
|
|
10221120,
|
|
10211120,
|
|
10201120,
|
|
10211120,
|
|
10201120,
|
|
10210120,
|
|
1000201110102000,
|
|
10211120,
|
|
11201121,
|
|
11211122,
|
|
10201221,
|
|
20102100,
|
|
10121111,
|
|
#GOGOEND
|
|
2000000000000022,
|
|
10121120,
|
|
11211120,
|
|
10211102,
|
|
11221122,
|
|
11211122,
|
|
12121212,
|
|
1010201012221222,
|
|
1,
|
|
#GOGOSTART
|
|
11201120,
|
|
11211120,
|
|
11201120,
|
|
11211120,
|
|
11211120,
|
|
11211120,
|
|
10221120,
|
|
10211120,
|
|
10201120,
|
|
10211120,
|
|
10201120,
|
|
10210120,
|
|
1000201110102000,
|
|
10211120,
|
|
11201121,
|
|
11211122,
|
|
10201221,
|
|
20102100,
|
|
1022101010101010,
|
|
#GOGOEND
|
|
2,
|
|
#END
|
|
|
|
|
|
COURSE:Hard
|
|
LEVEL:5
|
|
BALLOON:
|
|
SCOREINIT:
|
|
SCOREDIFF:
|
|
NOTESDESIGNER2:Colin
|
|
|
|
|
|
#START
|
|
#BARLINEOFF
|
|
0,
|
|
#BARLINEON
|
|
#SCROLL 0.5
|
|
10210120,
|
|
10210120,
|
|
1010200020112000,
|
|
1000201000102001,
|
|
11201120,
|
|
11201120,
|
|
11201120,
|
|
11202120,
|
|
11202120,
|
|
11202120,
|
|
10210120,
|
|
10210120,
|
|
11202120,
|
|
11201120,
|
|
11201120,
|
|
11202220,
|
|
1110,
|
|
10201021,
|
|
1110,
|
|
10101012,
|
|
1110,
|
|
10112010,
|
|
1110,
|
|
10101120,
|
|
#GOGOSTART
|
|
11201020,
|
|
10210120,
|
|
1212,
|
|
11210120,
|
|
10210120,
|
|
10210120,
|
|
1212,
|
|
10210120,
|
|
1212,
|
|
10210120,
|
|
1212,
|
|
10210120,
|
|
10210120,
|
|
10210120,
|
|
10201021,
|
|
01210102,
|
|
10201201,
|
|
20102100,
|
|
10121011,
|
|
#GOGOEND
|
|
2,
|
|
10120120,
|
|
10210120,
|
|
10210102,
|
|
10220120,
|
|
11201120,
|
|
12101210,
|
|
11215000,
|
|
8,
|
|
#GOGOSTART
|
|
11201020,
|
|
10210120,
|
|
1212,
|
|
11210120,
|
|
10210120,
|
|
10210120,
|
|
1212,
|
|
10210120,
|
|
1212,
|
|
10210120,
|
|
1212,
|
|
10210120,
|
|
10210120,
|
|
10210120,
|
|
10201021,
|
|
01210102,
|
|
10201201,
|
|
20102100,
|
|
10121011,
|
|
#GOGOEND
|
|
2,
|
|
#END
|
|
|
|
COURSE:Normal
|
|
LEVEL:4
|
|
BALLOON:
|
|
SCOREINIT:
|
|
SCOREDIFF:
|
|
NOTESDESIGNER1:Colin
|
|
|
|
|
|
#START
|
|
#BARLINEOFF
|
|
0,
|
|
#BARLINEON
|
|
#SCROLL 0.5
|
|
1120,
|
|
1110,
|
|
1120,
|
|
1110,
|
|
1120,
|
|
1110,
|
|
1120,
|
|
1110,
|
|
5,
|
|
8500,
|
|
8500,
|
|
8,
|
|
5,
|
|
85000000,
|
|
08500000,
|
|
00000008,
|
|
1,
|
|
1110,
|
|
1010,
|
|
1111,
|
|
1,
|
|
1,
|
|
1010,
|
|
1111,
|
|
#GOGOSTART
|
|
1020,
|
|
1010,
|
|
1120,
|
|
10011020,
|
|
1210,
|
|
10010120,
|
|
1110,
|
|
1120,
|
|
5,
|
|
0800,
|
|
5,
|
|
00800005,
|
|
0008,
|
|
1110,
|
|
2220,
|
|
2220,
|
|
5,
|
|
8,
|
|
5,
|
|
#GOGOEND
|
|
8,
|
|
1110,
|
|
1120,
|
|
1110,
|
|
1120,
|
|
1110,
|
|
1120,
|
|
1110,
|
|
1,
|
|
#GOGOSTART
|
|
1020,
|
|
1010,
|
|
1120,
|
|
10011020,
|
|
1210,
|
|
10010120,
|
|
1110,
|
|
1120,
|
|
5,
|
|
0800,
|
|
5,
|
|
00800005,
|
|
0008,
|
|
1110,
|
|
2220,
|
|
2220,
|
|
5,
|
|
8,
|
|
5,
|
|
#GOGOEND
|
|
8,
|
|
#END
|
|
|
|
COURSE:Easy
|
|
LEVEL:3
|
|
BALLOON:
|
|
SCOREINIT:
|
|
SCOREDIFF:
|
|
NOTESDESIGNER0:Colin
|
|
|
|
|
|
#START
|
|
#BARLINEOFF
|
|
0,
|
|
#BARLINEON
|
|
#SCROLL 0.5
|
|
1,
|
|
1,
|
|
1,
|
|
1,
|
|
1,
|
|
1,
|
|
1,
|
|
1,
|
|
5,
|
|
8500,
|
|
8500,
|
|
8,
|
|
5,
|
|
85000000,
|
|
08500000,
|
|
00000008,
|
|
1,
|
|
1,
|
|
1,
|
|
1010,
|
|
1,
|
|
1,
|
|
1010,
|
|
1010,
|
|
#GOGOSTART
|
|
1020,
|
|
1010,
|
|
1020,
|
|
1100,
|
|
1010,
|
|
1,
|
|
1010,
|
|
1,
|
|
5,
|
|
0800,
|
|
5,
|
|
00800005,
|
|
0008,
|
|
1010,
|
|
2020,
|
|
2020,
|
|
5,
|
|
8,
|
|
5,
|
|
#GOGOEND
|
|
8,
|
|
1010,
|
|
1020,
|
|
1010,
|
|
1020,
|
|
1010,
|
|
1020,
|
|
1010,
|
|
1,
|
|
#GOGOSTART
|
|
1,
|
|
1010,
|
|
1020,
|
|
1,
|
|
1,
|
|
1,
|
|
1,
|
|
1020,
|
|
5,
|
|
0800,
|
|
5,
|
|
00800005,
|
|
0008,
|
|
1010,
|
|
2020,
|
|
2020,
|
|
5,
|
|
8,
|
|
5,
|
|
#GOGOEND
|
|
8,
|
|
#END
|