generated from DragonRatTiger/Custom-Charts
372 lines
3.5 KiB
Plaintext
372 lines
3.5 KiB
Plaintext
TITLE:Dilemma
|
|
SUBTITLE:--ecosystem / Gintama'
|
|
TITLEJA:ジレンマ
|
|
SUBTITLEJA:エコシステム 「 銀魂'」より
|
|
PREIMAGE:Dilemma.png
|
|
BGMOVIE:Dilemma.mp4
|
|
WAVE:Dilemma.ogg
|
|
BPM:182
|
|
OFFSET:-0.158
|
|
DEMOSTART:59.168
|
|
MAKER:Colin
|
|
|
|
COURSE:Easy
|
|
LEVEL:2
|
|
SCOREINIT:
|
|
SCOREDIFF:
|
|
NOTESDESIGNER0:Colin
|
|
|
|
#START
|
|
,
|
|
,
|
|
1010,
|
|
1001,
|
|
0101,
|
|
#MEASURE 3/4
|
|
,
|
|
#MEASURE 4/4
|
|
#GOGOSTART
|
|
2020,
|
|
2,
|
|
2,
|
|
2020,
|
|
2,
|
|
2020,
|
|
1,
|
|
1010,
|
|
#GOGOEND
|
|
1,
|
|
1,
|
|
1,
|
|
1,
|
|
1,
|
|
1,
|
|
2020,
|
|
2,
|
|
10010010,
|
|
0010,
|
|
2,
|
|
2020,
|
|
10010000,
|
|
10010000,
|
|
1111,
|
|
5,
|
|
,
|
|
0008,
|
|
2225,
|
|
0008,
|
|
1150,
|
|
0008,
|
|
00050000,
|
|
0080,
|
|
2025,
|
|
0008,
|
|
2050,
|
|
0080,
|
|
10010050,
|
|
0008,
|
|
6008,
|
|
#GOGOSTART
|
|
3030,
|
|
3030,
|
|
1,
|
|
2,
|
|
1010,
|
|
1,
|
|
2020,
|
|
4,
|
|
3030,
|
|
3,
|
|
4,
|
|
4,
|
|
1010,
|
|
1,
|
|
2022,
|
|
2020,
|
|
6,
|
|
0008,
|
|
6,
|
|
0080,
|
|
1110,
|
|
1020,
|
|
1013,
|
|
6,
|
|
8020,
|
|
1020,
|
|
#GOGOEND
|
|
2020,
|
|
2002,
|
|
0202,
|
|
0240,
|
|
#END
|
|
|
|
COURSE:Normal
|
|
LEVEL:3
|
|
SCOREINIT:
|
|
SCOREDIFF:
|
|
NOTESDESIGNER1:Colin
|
|
|
|
#START
|
|
,
|
|
,
|
|
1011,
|
|
1011,
|
|
0101,
|
|
#MEASURE 3/4
|
|
1,
|
|
#MEASURE 4/4
|
|
#GOGOSTART
|
|
2022,
|
|
2020,
|
|
2,
|
|
2020,
|
|
2022,
|
|
20002011,
|
|
1010,
|
|
10111010,
|
|
#GOGOEND
|
|
1020,
|
|
1020,
|
|
1020,
|
|
1020,
|
|
1020,
|
|
1020,
|
|
20202022,
|
|
20020200,
|
|
10010010,
|
|
0011,
|
|
2020,
|
|
20002200,
|
|
10110000,
|
|
10110000,
|
|
1111,
|
|
5,
|
|
,
|
|
0008,
|
|
2225,
|
|
0008,
|
|
1150,
|
|
0008,
|
|
11050000,
|
|
0080,
|
|
2025,
|
|
0008,
|
|
2250,
|
|
0080,
|
|
10010150,
|
|
0008,
|
|
6008,
|
|
#GOGOSTART
|
|
3230,
|
|
3230,
|
|
10020000,
|
|
20020000,
|
|
1011,
|
|
1020,
|
|
20002002,
|
|
05000080,
|
|
3232,
|
|
3010,
|
|
40020000,
|
|
40020000,
|
|
1110,
|
|
1010,
|
|
2022,
|
|
2022,
|
|
6,
|
|
0008,
|
|
6,
|
|
0080,
|
|
1110,
|
|
10002011,
|
|
1010,
|
|
6,
|
|
8022,
|
|
1020,
|
|
#GOGOEND
|
|
2022,
|
|
2022,
|
|
0202,
|
|
2240,
|
|
#END
|
|
|
|
COURSE:Hard
|
|
LEVEL:4
|
|
SCOREINIT:
|
|
SCOREDIFF:
|
|
NOTESDESIGNER2:Colin
|
|
|
|
#START
|
|
,
|
|
,
|
|
11011011,
|
|
10011010,
|
|
01100110,
|
|
#MEASURE 3/4
|
|
111,
|
|
#MEASURE 4/4
|
|
#GOGOSTART
|
|
2220,
|
|
1012,
|
|
1220,
|
|
1120,
|
|
2011,
|
|
10001120,
|
|
21020101,
|
|
01101010,
|
|
#GOGOEND
|
|
12010000,
|
|
12220001,
|
|
10102101,
|
|
22020001,
|
|
20110001,
|
|
11120001,
|
|
20111022,
|
|
20010100,
|
|
10020010,
|
|
01101102,
|
|
2020,
|
|
20001100,
|
|
11110002,
|
|
12020001,
|
|
10202200,
|
|
10201120,
|
|
10201121,
|
|
01201020,
|
|
10201120,
|
|
10201120,
|
|
10201021,
|
|
01210120,
|
|
11201020,
|
|
10201120,
|
|
10102011,
|
|
10201120,
|
|
1212,
|
|
1212,
|
|
10210110,
|
|
10201120,
|
|
2020201110222020,
|
|
#GOGOSTART
|
|
30201120,
|
|
20121020,
|
|
11020000,
|
|
11020120,
|
|
10112010,
|
|
20111020,
|
|
20221012,
|
|
0020200011102000,
|
|
10201120,
|
|
1012,
|
|
22020121,
|
|
12020120,
|
|
20111022,
|
|
01121020,
|
|
2222,
|
|
2111,
|
|
6,
|
|
0008,
|
|
6,
|
|
0080,
|
|
40403033,
|
|
03000004,
|
|
40004004,
|
|
06000000,
|
|
,
|
|
8020,
|
|
#GOGOEND
|
|
11011101,
|
|
10101011,
|
|
01101120,
|
|
20212100,
|
|
#END
|
|
|
|
COURSE:Oni
|
|
LEVEL:8
|
|
SCOREINIT:
|
|
SCOREDIFF:
|
|
NOTESDESIGNER3:Colin
|
|
|
|
#START
|
|
00220122,
|
|
01220141,
|
|
1011202010112020,
|
|
1012102010221012,
|
|
1020101210202222,
|
|
#MEASURE 3/4
|
|
111122222222,
|
|
#MEASURE 4/4
|
|
#GOGOSTART
|
|
1010201210102022,
|
|
1010201210102022,
|
|
1010201210102022,
|
|
1010201210102022,
|
|
1010201210102022,
|
|
1010201210102011,
|
|
21212121,
|
|
2010202211112210,
|
|
#GOGOEND
|
|
4020201000102011,
|
|
1020201000112011,
|
|
1010201020102210,
|
|
2010201110112011,
|
|
2020201000102011,
|
|
1010201000102011,
|
|
2010202010102022,
|
|
2010201110102022,
|
|
1011201020112012,
|
|
1010201210102022,
|
|
1010201120102011,
|
|
2010201020112000,
|
|
1011201020102022,
|
|
1010201120102010,
|
|
3010202211112222,
|
|
1010201210102022,
|
|
1010201020112022,
|
|
1010202210102011,
|
|
1010201210102022,
|
|
1010201110102022,
|
|
1010201210102022,
|
|
1010202210102022,
|
|
1010201011112222,
|
|
1010201210102022,
|
|
1010201120102022,
|
|
1010201210102022,
|
|
1010201120102012,
|
|
1010201210102022,
|
|
1010201210102022,
|
|
11221121,
|
|
2010201011112222,
|
|
#GOGOSTART
|
|
1010201110102011,
|
|
2010202212102011,
|
|
1010201210102022,
|
|
1010201110102022,
|
|
1010201020102011,
|
|
1010202210102011,
|
|
1010201020102011,
|
|
2010202011112222,
|
|
1010201210102011,
|
|
1010201020112022,
|
|
1010201020102022,
|
|
1010201120112222,
|
|
1010201120102022,
|
|
1010201120102000,
|
|
21212121,
|
|
2010201022221111,
|
|
2010201210102022,
|
|
1010201210102022,
|
|
1010201210102022,
|
|
1010201120101022,
|
|
2010201020112010,
|
|
2010201110102022,
|
|
11212124,
|
|
0010201210102022,
|
|
1010201110102022,
|
|
1010202210102022,
|
|
#GOGOEND
|
|
1011202010112020,
|
|
1111222211221012,
|
|
1020101210204030,
|
|
43444400,
|
|
#END
|