generated from DragonRatTiger/Custom-Charts
271 lines
3.6 KiB
Plaintext
271 lines
3.6 KiB
Plaintext
TITLE:Force
|
||
TITLEJA:Force
|
||
SUBTITLE:--TOMORROW×TOGETHER / World Trigger
|
||
SUBTITLEJA:TOMORROW×TOGETHER「ワールドトリガー2期」より
|
||
PREIMAGE:Force.jpg
|
||
BPM:132
|
||
WAVE:Force.ogg
|
||
OFFSET:-4.039
|
||
DEMOSTART:42.220
|
||
BGMOVIE:.mp4
|
||
MAKER:Colin
|
||
|
||
COURSE:Oni
|
||
LEVEL:8
|
||
BALLOON:
|
||
SCOREINIT:
|
||
SCOREDIFF:
|
||
NOTESDESIGNER3:Colin
|
||
|
||
|
||
#START
|
||
000000000000000030000000000000000400000000000000000300000000000000000000000400000000000000000000,
|
||
00000300000400000300000004000000,
|
||
000000000000000030000000000000000400000000000000000300000000000000000000000400000000000000000000,
|
||
30000003000040000300000300000300,
|
||
00000
|
||
#GOGOSTART
|
||
100000200001000000020000000,
|
||
00000100000200020100000020000000,
|
||
0010010010001002,
|
||
1021021030030030,
|
||
#GOGOEND
|
||
1011202102021022,
|
||
1011202101012122,
|
||
1021122101212011,
|
||
2011202101212211,
|
||
1011202101212021,
|
||
2010201022112010,
|
||
1211201211112010,
|
||
2000211211102020,
|
||
12102022,
|
||
1010102021201010,
|
||
21112112,
|
||
10212010200020
|
||
#BARLINEOFF
|
||
#SCROLL 1.5
|
||
22,
|
||
22222
|
||
#BARLINEON
|
||
#SCROLL 1
|
||
00000000000,
|
||
#GOGOSTART
|
||
3002102210102022,
|
||
1111202120102011,
|
||
1010202121212022,
|
||
1011202121112022,
|
||
1002102210102022,
|
||
1111202120102011,
|
||
1010202121212022,
|
||
1011202121112020,
|
||
50000811,
|
||
2011202210102010,
|
||
50000812,
|
||
1011221120112020,
|
||
50000802,
|
||
1010002120101010,
|
||
22120211,
|
||
3003003000212020,
|
||
30330303,
|
||
3003003012212210,
|
||
0010020010002000,
|
||
0010120020002000,
|
||
00010000010000010000000100000001,
|
||
00000200000100010000010000010000,
|
||
00001000002000010000000200000000,
|
||
00010000010000020000000200000000,
|
||
00010000010000010000000100000001,
|
||
00000200000100010000010000010000,
|
||
#GOGOEND
|
||
#END
|
||
|
||
COURSE:Hard
|
||
LEVEL:5
|
||
BALLOON:
|
||
SCOREINIT:
|
||
SCOREDIFF:
|
||
NOTESDESIGNER2:Colin
|
||
|
||
|
||
#START
|
||
000000000000000030000000000000000400000000000000000300000000000000000000000400000000000000000000,
|
||
00000300000400000300000004000000,
|
||
000000000000000030000000000000000400000000000000000300000000000000000000000400000000000000000000,
|
||
30000003000040000300000300000300,
|
||
00000
|
||
#GOGOSTART
|
||
100000200001000000020000000,
|
||
00000100000200000100000020000000,
|
||
0010010010001000,
|
||
1001001030030030,
|
||
#GOGOEND
|
||
1010201110102022,
|
||
21121011,
|
||
1110100010001000,
|
||
1020111010002220,
|
||
12121022,
|
||
1000101010002022,
|
||
22222222,
|
||
50000008,
|
||
2,
|
||
2,
|
||
2,
|
||
20000005,
|
||
00080000,
|
||
#GOGOSTART
|
||
2022201020102000,
|
||
1011100010111011,
|
||
11201010,
|
||
1000100110111110,
|
||
2022201020102000,
|
||
1011101010111011,
|
||
11201010,
|
||
1000100110111110,
|
||
50000812,
|
||
2220101010101010,
|
||
5000000000802022,
|
||
2020202220201010,
|
||
50000081,
|
||
11011010,
|
||
30330303,
|
||
3003003000600080,
|
||
30330303,
|
||
3003006000000080,
|
||
0010020050000008,
|
||
0020020050000008,
|
||
0020020500000080,
|
||
1001000010010010,
|
||
0500000000000008,
|
||
05000008,
|
||
0500000000000080,
|
||
0000000100100100,
|
||
#GOGOEND
|
||
#END
|
||
|
||
COURSE:Normal
|
||
LEVEL:2
|
||
BALLOON:
|
||
SCOREINIT:
|
||
SCOREDIFF:
|
||
NOTESDESIGNER1:Colin
|
||
|
||
|
||
#START
|
||
0005000000000000,
|
||
0805000000000000,
|
||
0805000000000000,
|
||
0,
|
||
8000
|
||
#GOGOSTART
|
||
000050000008,
|
||
0000000000000500,
|
||
08000000,
|
||
0,
|
||
#GOGOEND
|
||
20202022,
|
||
2222,
|
||
2222,
|
||
2222,
|
||
2222,
|
||
2002005000008000,
|
||
1111,
|
||
1111,
|
||
1,
|
||
1,
|
||
1,
|
||
10000005,
|
||
0000080000000000,
|
||
#GOGOSTART
|
||
10111010,
|
||
01111010,
|
||
05000000,
|
||
00000008,
|
||
10111010,
|
||
01111010,
|
||
05000000,
|
||
00000008,
|
||
2200,
|
||
0,
|
||
2200,
|
||
0,
|
||
2200,
|
||
0002,
|
||
22220202,
|
||
2002002000202020,
|
||
20220202,
|
||
2002002000000000,
|
||
0500000000000000,
|
||
0000000000000008,
|
||
05000000,
|
||
00000008,
|
||
0500000000000000,
|
||
0,
|
||
00000008,
|
||
0000000000000100,
|
||
#GOGOEND
|
||
#END
|
||
|
||
COURSE:Easy
|
||
LEVEL:1
|
||
BALLOON:
|
||
SCOREINIT:
|
||
SCOREDIFF:
|
||
NOTESDESIGNER0:Colin
|
||
|
||
|
||
#START
|
||
0005000000000000,
|
||
0805000000000000,
|
||
0805000000000000,
|
||
0,
|
||
8000
|
||
#GOGOSTART
|
||
000050000008,
|
||
0000000000000500,
|
||
08000000,
|
||
0,
|
||
#GOGOEND
|
||
2,
|
||
2,
|
||
2,
|
||
2,
|
||
2,
|
||
20050080,
|
||
1,
|
||
1,
|
||
1,
|
||
1,
|
||
1,
|
||
10000005,
|
||
0000080000000000,
|
||
#GOGOSTART
|
||
1111,
|
||
0101,
|
||
05000000,
|
||
00000008,
|
||
1111,
|
||
01001010,
|
||
05000000,
|
||
00000008,
|
||
2,
|
||
0,
|
||
2,
|
||
0,
|
||
2,
|
||
0,
|
||
2,
|
||
2,
|
||
2,
|
||
2002002000000000,
|
||
0500000000000000,
|
||
0000000000000008,
|
||
05000000,
|
||
00000008,
|
||
0500000000000000,
|
||
0,
|
||
00000008,
|
||
0000000000000100,
|
||
#GOGOEND
|
||
#END
|
||
|