Files
Colins_Custom_Charts/02 Anime/LIAR MASK/LIAR MASK.tja
T
2025-06-11 19:53:16 -04:00

424 lines
4.1 KiB
Plaintext

TITLE:LIAR MASK
TITLEJA:LIAR MASK
SUBTITLE:--Rika Mayama / Akame ga Kill!
SUBTITLEJA:真山りか「アカメが斬る!」より
BPM:151
WAVE:LIAR MASK.ogg
OFFSET:-1.483
DEMOSTART:54.874
BGMOVIE:.mp4
MAKER:Colin
COURSE:Edit
LEVEL:10
BALLOON:
SCOREINIT:
SCOREDIFF:
NOTESDESIGNER4:Colin
#START
200000000000000000000002,
000000000000000000000002,
0,
2,
#GOGOSTART
3,
3
#BPMCHANGE 180
0,
06000000,
0,
00000008,
#GOGOEND
122112111202,
111222111211,
112222122111,
102122101222,
111101212112,
101212111222,
101211222122,
101202101200,
111202121111,
202111211222,
101222111200,
111222100000,
111211212111,
121211212111,
121111211211,
102222202020,
1121,
1211,
200222112222,
1121,
2111,
2122,
10011220,
0120,
0100,
10001120,
2222,
2222,
1111201211112111,
1011111122220000,
#GOGOSTART
2222111122111011,
1111222211112222,
1111222211221211,
2211201110102000,
2222222211112211,
1111121012101210,
1111201111221121,
1111111122112222,
1111200011212111,
1111222211112222,
1111221111221211,
2211201110102012,
2222222211112211,
1111121012101210,
1111201111221121,
1122111122112211,
1111212211112211,
2211222212121120,
1222112012101222,
1222221111221121,
1122112211221122,
1122112211221122,
1122112211221122,
1111111111111111,
1111111111111111,
1111111111111110,
#GOGOEND
#END
COURSE:Oni
LEVEL:8
BALLOON:
SCOREINIT:
SCOREDIFF:
NOTESDESIGNER3:Colin
#START
200000000000000000000002,
000000000000000000000002,
0,
2,
#GOGOSTART
3,
3
#BPMCHANGE 180
0,
06000000,
0,
00000008,
#GOGOEND
100001200202,
100100121222,
100002102122,
100001211201,
101101202101,
202101222111,
102101202102,
101201211100,
100001200202,
100100121222,
100002102122,
100000000000000000100100200010001000200000001000,
101201212122,
101202121222,
101211200202,
102222211100,
50082050,
81201002,
1508,
100001222102,
100010200000500000800200,
11500080,
50081050,
82105082,
1508,
1111,
1111,
1111,
2222102122221022,
13333000,
#GOGOSTART
1022102210121050,
0080202210102022,
1111202210221020,
1111201011221010,
5000008050802210,
0011201120112000,
6,
0000008021212120,
1022102210121050,
0080202210102022,
1111202210205000,
8011201011221050,
00085825,
0080112022112050,
0,
00803303,
00303033,
0333,
1111102000102100,
2211112022111120,
1020112210112022,
1021202210221022,
1011202210111120,
3333,
3333,
3333,
#GOGOEND
#END
COURSE:Hard
LEVEL:5
BALLOON:30
SCOREINIT:
SCOREDIFF:
NOTESDESIGNER2:Colin
#START
200000000000000000000002,
000000000000000000000002,
0,
2,
#GOGOSTART
3,
3
#BPMCHANGE 180
0,
06000000,
0,
00000008,
#GOGOEND
100001100101,
1120,
200000201100,
5008,
101111101101,
1111,
100001100101,
1220,
100001100000,
1110,
50081058,
10011000,
50085008,
58585080,
5,
00000008,
1012,
02102002,
1200,
2000002220201000,
10101001,
11100000,
1011,
02102001,
2100,
1111,
1111,
1111,
5,
8,
#GOGOSTART
1110102220111050,
0080201110111011,
11221212,
1022202020222000,
5000008011101050,
0080111011101110,
1011105000000000,
0000008010111011,
1010200020222020,
0010101110111010,
30330360,
0000008011102050,
00081125,
08202125,
0,
00803303,
00303033,
0333,
6,
00000008,
1011102010111010,
1011102010111010,
1011102010111010,
7,
0,
00000008,
#GOGOEND
#END
COURSE:Normal
LEVEL:4
BALLOON:
SCOREINIT:
SCOREDIFF:
NOTESDESIGNER1:Colin
#START
200000000000000000000002,
000000000000000000000002,
0,
2,
#GOGOSTART
3,
3
#BPMCHANGE 180
0,
06000000,
0,
00000008,
#GOGOEND
1111,
1111,
1111,
1111,
1100,
1220,
11,
1111,
1111,
1111,
1111,
1111,
1222,
2210,
11,
1,
5,
0,
0008,
5,
0,
0008,
5,
0,
0008,
1001,
0011,
1111,
5,
0008,
#GOGOSTART
58101105,
08585858,
5,
08001020,
5,
0,
0,
00081111,
10201021,
0111,
10110150,
00080050,
00085000,
08500000,
0,
00803303,
00303033,
0333,
6,
00000008,
2222,
2222,
2222,
11,
11,
11,
#GOGOEND
#END
COURSE:Easy
LEVEL:3
BALLOON:
SCOREINIT:
SCOREDIFF:
NOTESDESIGNER0:Colin
#START
200000000000000000000002,
000000000000000000000002,
0,
2,
#GOGOSTART
3,
3
#BPMCHANGE 180
0,
06000000,
0,
00000008,
#GOGOEND
11,
11,
11,
11,
1,
12,
11,
1110,
11,
11,
11,
11,
12,
21,
11,
1,
5,
0,
0008,
5,
0,
0008,
5,
0,
0008,
1001,
01,
11,
5,
0008,
#GOGOSTART
58100105,
08585858,
5,
08001020,
5,
0,
0,
00081010,
10200021,
0111,
10110150,
00080050,
00085000,
08500000,
0,
00803003,
00303003,
0333,
6,
00000008,
22,
22,
22,
11,
11,
11,
#END