Files
Colins_Custom_Charts/02 Anime/Ninety Nine Point Nine/99.9.tja
T
2025-12-20 15:50:25 -05:00

357 lines
3.5 KiB
Plaintext

TITLE:99.9
TITLEJA:99.9
SUBTITLE:--MOB CHOIR feat. sajou no hana / Mob Psycho 100 II
SUBTITLEJA:MOB CHOIR feat. sajou no hana 「Mob Psycho 100 Ⅱ」より
PREIMAGE:99.9.png
BPM:168
WAVE:99.9.ogg
OFFSET:-0.515
DEMOSTART:53.848
MAKER:Colin
COURSE:Oni
LEVEL:8
BALLOON:
SCOREINIT:
SCOREDIFF:
NOTESDESIGNER3:Colin
#START
#SCROLL 0.9
1021211201221011,
2021012010112122,
#GOGOSTART
10
#SCROLL 1
0000100000200000100200100000100000200000100000,
1010201012112010,
1010201012102020,
1011221010102022,
1010201210102010,
1010201012112010,
1010201012101020,
1022221000102000,
#GOGOEND
#SCROLL 0.8
11211121,
1010201012102022,
11211121,
1010201012102022,
1010201010102012,
1010201212102022,
1010202012102020,
1210201010102022,
1
#SCROLL 0.9
00100200100100100200100,
1010201012102022,
1010201011202010,
1010102012102022,
11211121,
1010201011201020,
#SCROLL 1
11221122,
1120202010202022,
10121020,
1000102010202222,
#GOGOSTART
1010102010201120,
1020102012102022,
#GOGOEND
10121020,
1000102010202022,
1030302210221122,
1210101210121022,
1001201022102022,
1010112012112022,
100000100200100000101010200000100100200000200000,
1120211120112020,
#GOGOSTART
#SCROLL 1.1
11211121,
1011202012112020,
11211121,
1010201012102022,
1010201012102020,
1010201012102020,
1210202012112210,
1111201000112020,
#SCROLL 1
11212121,
21212121,
21212121,
21212121,
21212121,
21212121,
21212121,
102222
#GOGOEND
1000000000,
#GOGOSTART
#SCROLL 1.1
1010201210102010,
1010201012112010,
1010201012102020,
1011221010102022,
1010201210102010,
1010201012112010,
1010201012101020,
1022221000102010,
#GOGOEND
1,
#END
COURSE:Hard
LEVEL:6
BALLOON:20
SCOREINIT:
SCOREDIFF:
NOTESDESIGNER2:Colin
#START
1011110202202010,
2022022010102020,
#GOGOSTART
10303321,
01444040,
10303321,
01444040,
10303321,
01444040,
10303321,
00210120,
#GOGOEND
10201120,
11210120,
10201120,
11210120,
10201120,
11210120,
10201120,
11210120,
1010201110002000,
11210112,
1010201110002000,
11210112,
1010201110002000,
11210112,
50085008,
58012020,
30033013,
3000100020202220,
#GOGOSTART
11202212,
10112011,
#GOGOEND
1111,
1000100010001022,
2030300030030030,
0030300030030030,
1022202022101020,
11222020,
,
7,
#GOGOSTART
80201121,
0010201011102000,
10201120,
10210120,
12121020,
1020100020020020,
0010102010010050,
0000008000222020,
3333,
3333,
3333,
3333,
3333,
3333,
30404004,
040
#GOGOEND
00000,
#GOGOSTART
10303321,
01444040,
10303321,
01444040,
10303321,
01444040,
10303321,
00210121,
#GOGOEND
1,
#END
COURSE:Normal
LEVEL:4
BALLOON:15
SCOREINIT:
SCOREDIFF:
NOTESDESIGNER1:Colin
#START
#BARLINEOFF
0,
,
#GOGOSTART
#BARLINEON
0333,
0444,
0333,
0444,
0333,
0444,
00300301,
20010020,
#GOGOEND
1220,
1220,
1220,
1220,
1220,
1012,
1020,
1010,
1220,
1220,
1220,
1220,
1220,
1220,
50085008,
58001020,
3030,
3120,
#GOGOSTART
1001,
1001,
#GOGOEND
0110,
1001,
06000008,
06000008,
00200002,
0222,
,
7,
#GOGOSTART
8012,
1012,
1012,
1012,
1012,
1220,
01201005,
00080200,
3330,
3330,
3330,
3330,
3330,
3330,
3,
000
#GOGOEND
00000,
#GOGOSTART
0343,
0343,
0343,
0343,
0343,
0343,
00303001,
00010020,
#GOGOEND
1,
#END
COURSE:Easy
LEVEL:3
BALLOON:10
SCOREINIT:
SCOREDIFF:
NOTESDESIGNER0:Colin
#START
#BARLINEOFF
0,
,
#GOGOSTART
#BARLINEON
0333,
,
0333,
,
0333,
,
00300301,
00010020,
#GOGOEND
1,
1,
1,
1,
1,
1010,
1,
1010,
1020,
1020,
1020,
1020,
1020,
1020,
50085008,
58001020,
3030,
3120,
#GOGOSTART
1201,
1021,
#GOGOEND
0110,
1101,
06000008,
06000008,
0000200000010020,
0222,
,
7,
#GOGOSTART
8010,
1010,
1010,
1010,
1010,
1020,
01001005,
00080200,
3030,
3030,
3030,
3030,
3030,
3030,
3,
000
#GOGOEND
00000,
#GOGOSTART
0303,
0303,
0303,
0303,
0303,
0303,
00300301,
00010020,
#GOGOEND
1,
#END