generated from DragonRatTiger/Custom-Charts
329 lines
3.9 KiB
Plaintext
329 lines
3.9 KiB
Plaintext
TITLE:Orange Mint
|
||
SUBTITLE:--Yotsugi Ononoki (CV:Sayori Hayami) / Tsukimonogatari
|
||
BPM:122
|
||
WAVE:Orange Mint.ogg
|
||
OFFSET:-0.733
|
||
DEMOSTART:55.323
|
||
BGMOVIE:.mp4
|
||
MAKER:Colin
|
||
|
||
COURSE:Edit
|
||
LEVEL:8
|
||
BALLOON:
|
||
SCOREINIT:
|
||
SCOREDIFF:
|
||
NOTESDESIGNER4:Colin
|
||
|
||
#START
|
||
1011221210112022,
|
||
1211202212221222,
|
||
1012112210221120,
|
||
1012102210122211,
|
||
#GOGOSTART
|
||
2010101210221122,
|
||
1022102211221022,
|
||
1122102210121022,
|
||
1012102210221122,
|
||
1022101210221122,
|
||
1022102210121022,
|
||
1222102210221022,
|
||
1012101022222000,
|
||
#GOGOEND
|
||
1012112110210000,
|
||
1021112210212202,
|
||
1122121212120002,
|
||
1122121121210202,
|
||
1021221111210011,
|
||
2112112212112122,
|
||
1122121210211122,
|
||
1121221222112211,
|
||
1010221120121022,
|
||
1011202210221020,
|
||
1022112211221022,
|
||
1011202210202011,
|
||
2012102210201012,
|
||
1022102210221011,
|
||
2022102211201120,
|
||
1010101010101212,
|
||
#GOGOSTART
|
||
1211202211221122,
|
||
1120112210221222,
|
||
1122102211221212,
|
||
1022102211221022,
|
||
1122112211221122,
|
||
1211202211221210,
|
||
1211202210201212,
|
||
1121201122112210,
|
||
1211201211112022,
|
||
1122101211221122,
|
||
1211201211112022,
|
||
1122101211221122,
|
||
1211201211112022,
|
||
1122101211221122,
|
||
1211201211112022,
|
||
1122101211221122,
|
||
1010201211221000,
|
||
#GOGOEND
|
||
#END
|
||
|
||
|
||
COURSE:Oni
|
||
LEVEL:7
|
||
BALLOON:
|
||
SCOREINIT:
|
||
SCOREDIFF:
|
||
NOTESDESIGNER3:Colin
|
||
|
||
#START
|
||
1001200010012010,
|
||
0012102210012000,
|
||
1001200010012010,
|
||
0012101210112022,
|
||
#GOGOSTART
|
||
1001200210212012,
|
||
1021201210102022,
|
||
1001200210221022,
|
||
1120102210112012,
|
||
1001200210212012,
|
||
1021201210102022,
|
||
1001200210221022,
|
||
1120121022222000,
|
||
#GOGOEND
|
||
10221212102
|
||
#SCROLL 1.5
|
||
3
|
||
#SCROLL 1
|
||
0000,
|
||
1021021120210202,
|
||
10212210102
|
||
#SCROLL 1.5
|
||
3
|
||
#SCROLL 1
|
||
0000,
|
||
1021010121210202,
|
||
10121210102
|
||
#SCROLL 1.5
|
||
3
|
||
#SCROLL 1
|
||
0011,
|
||
2021020120210202,
|
||
10221122102
|
||
#SCROLL 1.5
|
||
3
|
||
#SCROLL 1
|
||
0022,
|
||
1021020121210222,
|
||
1022100120201020,
|
||
0020102011212010,
|
||
50000008,
|
||
1020202210201020,
|
||
1210202210121020,
|
||
0210201210112022,
|
||
1002105080112010,
|
||
2020202012121120,
|
||
#GOGOSTART
|
||
3012102210121050,
|
||
0000802010121022,
|
||
1011201211201012,
|
||
1011201122103020,
|
||
3022101210221050,
|
||
0000801210121020,
|
||
1022102210201030,
|
||
23232322,
|
||
32303232,
|
||
0012102210021022,
|
||
3002300030023022,
|
||
1022101120121122,
|
||
32303232,
|
||
0012102210021000,
|
||
32303232,
|
||
0012102210002011,
|
||
2022112010211000,
|
||
#GOGOEND
|
||
#END
|
||
|
||
COURSE:Hard
|
||
LEVEL:5
|
||
BALLOON:
|
||
SCOREINIT:
|
||
SCOREDIFF:
|
||
NOTESDESIGNER2:Colin
|
||
|
||
#START
|
||
12101212,
|
||
0022202220222000,
|
||
12101212,
|
||
01212020,
|
||
#GOGOSTART
|
||
1110201020101020,
|
||
0011101020222011,
|
||
1110201020101020,
|
||
0011101020222011,
|
||
1110201020101020,
|
||
0011101020222011,
|
||
1110201020101020,
|
||
0011101020222000,
|
||
#GOGOEND
|
||
5080111010030000,
|
||
2022022010220300,
|
||
0011111010030000,
|
||
2022022010220100,
|
||
0011111010030022,
|
||
2022020110220101,
|
||
1022222020030011,
|
||
1002010210102020,
|
||
41500000,
|
||
0080001000111010,
|
||
5,
|
||
0000802220101050,
|
||
8010001110102050,
|
||
8010201000222020,
|
||
58258222,
|
||
22222222,
|
||
#GOGOSTART
|
||
3022201010101050,
|
||
00810111,
|
||
3000002000111010,
|
||
01120030,
|
||
3022201010101050,
|
||
00811111,
|
||
3000002010111010,
|
||
01120300,
|
||
32303232,
|
||
05000080,
|
||
32303232,
|
||
05000080,
|
||
32303232,
|
||
05000080,
|
||
32303232,
|
||
05000080,
|
||
20120010,
|
||
#GOGOEND
|
||
#END
|
||
|
||
|
||
COURSE:Normal
|
||
LEVEL:4
|
||
BALLOON:
|
||
SCOREINIT:
|
||
SCOREDIFF:
|
||
NOTESDESIGNER1:Colin
|
||
|
||
|
||
#START
|
||
10201021,
|
||
01112020,
|
||
10201021,
|
||
01212020,
|
||
#GOGOSTART
|
||
11201120,
|
||
11201120,
|
||
11201120,
|
||
11201120,
|
||
11201120,
|
||
11201120,
|
||
11201120,
|
||
11200000,
|
||
#GOGOEND
|
||
1000100010040000,
|
||
1020100020000200,
|
||
1000100010040000,
|
||
1000100010020000,
|
||
1000100010040000,
|
||
1020100020000200,
|
||
1000100010040000,
|
||
1020100020000200,
|
||
05000000,
|
||
00810111,
|
||
50000008,
|
||
10101011,
|
||
02011112,
|
||
01022121,
|
||
20210125,
|
||
0083,
|
||
30022225,
|
||
#GOGOSTART
|
||
00811120,
|
||
10201112,
|
||
01210030,
|
||
30022025,
|
||
00811120,
|
||
10201112,
|
||
01210300,
|
||
30303033,
|
||
0,
|
||
30303033,
|
||
0,
|
||
30303033,
|
||
0,
|
||
30303033,
|
||
0,
|
||
20120010,
|
||
#GOGOEND
|
||
#END
|
||
|
||
COURSE:Easy
|
||
LEVEL:3
|
||
BALLOON:
|
||
SCOREINIT:
|
||
SCOREDIFF:
|
||
NOTESDESIGNER0:Colin
|
||
|
||
#START
|
||
1210,
|
||
0,
|
||
1210,
|
||
0,
|
||
#GOGOSTART
|
||
3232,
|
||
0,
|
||
3232,
|
||
0,
|
||
3232,
|
||
0,
|
||
3232,
|
||
0022,
|
||
#GOGOEND
|
||
1000000000030000,
|
||
2000000000000200,
|
||
1000000000030000,
|
||
2000000000000200,
|
||
1000000000030000,
|
||
2000000000000200,
|
||
1000000000030000,
|
||
2000000000000200,
|
||
11,
|
||
11,
|
||
50000008,
|
||
00101012,
|
||
02010101,
|
||
01020202,
|
||
20220222,
|
||
0,
|
||
#GOGOSTART
|
||
33,
|
||
3,
|
||
33,
|
||
3,
|
||
33,
|
||
3,
|
||
33,
|
||
3,
|
||
4444,
|
||
0,
|
||
4444,
|
||
0,
|
||
4444,
|
||
0,
|
||
4444,
|
||
0,
|
||
1001,
|
||
#GOGOEND
|
||
#END
|
||
|
||
|
||
|
||
|
||
|
||
|