Files
Colins_Custom_Charts/02 Anime/Paradise/Paradise.tja
T
2025-06-11 19:53:16 -04:00

94 lines
1.2 KiB
Plaintext

TITLE:Paradise
SUBTITLE:--Rude-a / SK8 The Infinity
BPM:161
WAVE:Paradise.ogg
OFFSET:0.302
DEMOSTART:25.230
MAKER:Colin
COURSE:Oni
LEVEL:7
BALLOON:
SCOREINIT:
SCOREDIFF:
NOTESDESIGNER3:Colin
#START
0444,
40102021,
12012122,
21102021,
12012122,
21102021,
12012122,
21102021,
12012122,
1010201010112010,
22012122,
12212011,
21212111,
1010201010112010,
22012122,
1020201020001011,
2010201120102111,
2010200020102011,
2010101122102010,
2010101120201010,
21021212,
2022101020101010,
21212121,
21000120,
120000
#SCROLL 1.6587269846924568296465985670842042
40,
#SCROLL 1
4
#GOGOSTART
0302111,
21012122,
21012111,
2010201020102011,
2022101020101010,
2010101020201021,
2010101020221010,
1020201020102222,
202
#GOGOEND
2101020121010,
2022101020121010,
2022101020121010,
2022101020121010,
2022101020121010,
2022101020121010,
2011101010201010,
1010201010202111,
20
#GOGOSTART
102111,
21012122,
21012111,
2010201020102011,
2022101020101010,
2010101020201021,
2010101020221010,
1020201020102222,
11221222,
12020
#SCROLL 1.6587269846924568296465985670842042
303,
03
#SCROLL 1
222212,
21010121,
2120102020201020,
22010
#SCROLL 1.6587269846924568296465985670842042
303,
03
#SCROLL 1
000111,
21012112,
#GOGOEND
#END