generated from DragonRatTiger/Custom-Charts
332 lines
2.9 KiB
Plaintext
332 lines
2.9 KiB
Plaintext
TITLE:Re:Call
|
||
SUBTITLE:--i☆Ris / Twin Star Exorcists
|
||
BPM:170
|
||
TITLEJA:Re:Call
|
||
SUBTITLEJA:i☆Ris 「双星の陰陽師」より
|
||
PREIMAGE:ReCall.jpg
|
||
WAVE:ReCall.ogg
|
||
OFFSET:-1.040
|
||
DEMOSTART:56.635
|
||
MAKER:Colin
|
||
|
||
COURSE:Oni
|
||
LEVEL:8
|
||
BALLOON:66
|
||
SCOREINIT:
|
||
SCOREDIFF:
|
||
NOTESDESIGNER3:Colin
|
||
#START
|
||
10012001,
|
||
20110101,
|
||
10110201,
|
||
00001021,
|
||
00002122,
|
||
02020101,
|
||
0012,
|
||
11020220,
|
||
#GOGOSTART
|
||
21121121,
|
||
21121121,
|
||
21121121,
|
||
21121121,
|
||
21121121,
|
||
21121121,
|
||
2022222222222222,
|
||
1020111020102222,
|
||
#GOGOEND
|
||
1000102020001011,
|
||
10221111,
|
||
10111211,
|
||
10101012,
|
||
10111011,
|
||
10121111,
|
||
10112020,
|
||
21011012,
|
||
1010202020010010,
|
||
1010101010010010,
|
||
1020201010210020,
|
||
1010101020120010,
|
||
2010201020010010,
|
||
2010101010020012,
|
||
1000102020010020,
|
||
1010200010202210,
|
||
2010112020001010,
|
||
1110200011112010,
|
||
1010111120101010,
|
||
1111202011112010,
|
||
20221111,
|
||
2020101020221111,
|
||
21121121,
|
||
22211220,
|
||
#GOGOSTART
|
||
31221122,
|
||
30212121,
|
||
40110120,
|
||
11211122,
|
||
40212121,
|
||
40211122,
|
||
40110104,
|
||
1010201011221111,
|
||
11211121,
|
||
11211121,
|
||
11211022,
|
||
21211122,
|
||
42231141,
|
||
14114141,
|
||
4011102010102000,
|
||
#GOGOEND
|
||
20220200,
|
||
#GOGOSTART
|
||
21121121,
|
||
1211220
|
||
#GOGOEND
|
||
7,
|
||
,
|
||
,
|
||
,
|
||
,
|
||
8,
|
||
#END
|
||
|
||
COURSE:Hard
|
||
LEVEL:7
|
||
SCOREINIT:
|
||
SCOREDIFF:
|
||
NOTESDESIGNER2:Colin
|
||
|
||
#START
|
||
1,
|
||
1,
|
||
1,
|
||
1010,
|
||
1,
|
||
1,
|
||
3011,
|
||
1010001000111000,
|
||
#GOGOSTART
|
||
11202120,
|
||
11202120,
|
||
11202120,
|
||
11202120,
|
||
11202120,
|
||
11202120,
|
||
11202120,
|
||
1111,
|
||
#GOGOEND
|
||
1111,
|
||
1111,
|
||
1111,
|
||
1111,
|
||
1111,
|
||
1111,
|
||
1111,
|
||
1000100010111010,
|
||
2000101020010000,
|
||
1010200010010000,
|
||
1010102020010010,
|
||
1020102010010010,
|
||
2020101020010011,
|
||
1010201020010011,
|
||
1000100010010010,
|
||
5000800011111010,
|
||
10112010,
|
||
01201111,
|
||
1000111000101000,
|
||
11201010,
|
||
1011101000001011,
|
||
1000101110001110,
|
||
50000008,
|
||
00022220,
|
||
#GOGOSTART
|
||
30022222,
|
||
30022222,
|
||
3022201000105000,
|
||
08022222,
|
||
30022222,
|
||
30022222,
|
||
30030306,
|
||
00000008,
|
||
0111,
|
||
0111,
|
||
0111,
|
||
11010100,
|
||
21121121,
|
||
12112020,
|
||
500008
|
||
#GOGOEND
|
||
00,
|
||
,
|
||
#GOGOSTART
|
||
11121121,
|
||
1211210
|
||
#GOGOEND
|
||
5,
|
||
,
|
||
,
|
||
,
|
||
8,
|
||
#END
|
||
|
||
COURSE:Normal
|
||
LEVEL:6
|
||
BALLOON:
|
||
SCOREINIT:
|
||
SCOREDIFF:
|
||
NOTESDESIGNER1:Colin
|
||
#START
|
||
1,
|
||
1,
|
||
1,
|
||
11,
|
||
1,
|
||
1,
|
||
3011,
|
||
11010110,
|
||
#GOGOSTART
|
||
10120102,
|
||
10120102,
|
||
10120102,
|
||
10121012,
|
||
10120112,
|
||
11012002,
|
||
10120110,
|
||
20210120,
|
||
#GOGOEND
|
||
1111,
|
||
1111,
|
||
1111,
|
||
1111,
|
||
1111,
|
||
1111,
|
||
1111,
|
||
10101101,
|
||
2000101020010000,
|
||
1000201010010000,
|
||
1211,
|
||
12101011,
|
||
20101210,
|
||
1000100010010010,
|
||
10101011,
|
||
50801111,
|
||
10112010,
|
||
01201111,
|
||
10110110,
|
||
11201010,
|
||
10101110,
|
||
10101211,
|
||
50000008,
|
||
00022200,
|
||
#GOGOSTART
|
||
30022220,
|
||
30022220,
|
||
30010150,
|
||
08022220,
|
||
30022220,
|
||
30022220,
|
||
30030306,
|
||
00000008,
|
||
0111,
|
||
0111,
|
||
0111,
|
||
11010100,
|
||
20120120,
|
||
12012020,
|
||
500008
|
||
#GOGOEND
|
||
00,
|
||
0,
|
||
#GOGOSTART
|
||
10020120,
|
||
1211210
|
||
#GOGOEND
|
||
5,
|
||
0,
|
||
0,
|
||
0,
|
||
80000221,
|
||
#END
|
||
|
||
COURSE:Easy
|
||
LEVEL:2
|
||
BALLOON:
|
||
SCOREINIT:
|
||
SCOREDIFF:
|
||
NOTESDESIGNER0:Colin
|
||
#START
|
||
1,
|
||
0,
|
||
0,
|
||
01,
|
||
0,
|
||
0,
|
||
3,
|
||
1,
|
||
#GOGOSTART
|
||
10010000,
|
||
10010000,
|
||
10010000,
|
||
10010000,
|
||
10010010,
|
||
10010010,
|
||
10010000,
|
||
22,
|
||
#GOGOEND
|
||
2,
|
||
2,
|
||
2,
|
||
2,
|
||
2,
|
||
2,
|
||
2,
|
||
2,
|
||
11,
|
||
11,
|
||
1,
|
||
1,
|
||
1,
|
||
1,
|
||
1500,
|
||
00080000,
|
||
1021,
|
||
0210,
|
||
11,
|
||
1211,
|
||
1001,
|
||
1111,
|
||
50000008,
|
||
0,
|
||
#GOGOSTART
|
||
3,
|
||
3,
|
||
3005,
|
||
08000000,
|
||
3,
|
||
3,
|
||
30030306,
|
||
00000008,
|
||
0101,
|
||
0101,
|
||
0101,
|
||
10010100,
|
||
20020020,
|
||
02002020,
|
||
500008
|
||
#GOGOEND
|
||
00,
|
||
0,
|
||
#GOGOSTART
|
||
10020010,
|
||
01001105,
|
||
#GOGOEND
|
||
0,
|
||
0,
|
||
0,
|
||
80000001,
|
||
#END
|
||
|
||
|
||
|
||
|
||
|
||
|