generated from DragonRatTiger/Custom-Charts
310 lines
2.4 KiB
Plaintext
310 lines
2.4 KiB
Plaintext
TITLE:Re:pray
|
||
SUBTITLE:--Aimer / BLEACH
|
||
TITLEJA:Re:pray
|
||
SUBTITLEJA:Aimer「BLEACH」より
|
||
PREIMAGE:Repray.png
|
||
BPM:160
|
||
WAVE:Repray.ogg
|
||
OFFSET:-0.531
|
||
DEMOSTART:59.031
|
||
MAKER:Colin
|
||
|
||
COURSE:Oni
|
||
LEVEL:4
|
||
BALLOON:
|
||
SCOREINIT:
|
||
SCOREDIFF:
|
||
NOTESDESIGNER3:Colin
|
||
|
||
|
||
#START
|
||
1211,
|
||
00100201,
|
||
02101020,
|
||
10201201,
|
||
1500,
|
||
08101202,
|
||
12115000,
|
||
0008,
|
||
11201020,
|
||
1011,
|
||
11201210,
|
||
2022100020100010,
|
||
5,
|
||
81201210,
|
||
2022100020100010,
|
||
21201508,
|
||
12005008,
|
||
22102100,
|
||
10102120,
|
||
11002210,
|
||
1500,
|
||
00000008,
|
||
11102120,
|
||
1101,
|
||
11100500,
|
||
00081121,
|
||
1333,
|
||
30303031,
|
||
31401121,
|
||
11201122,
|
||
10101122,
|
||
11211210,
|
||
3333,
|
||
3000302010112011,
|
||
1010
|
||
#GOGOSTART
|
||
200020102022,
|
||
11221012,
|
||
10301120,
|
||
21012021,
|
||
20102122,
|
||
11201212,
|
||
1333,
|
||
6,
|
||
8000200020102022,
|
||
11221012,
|
||
10301120,
|
||
21012021,
|
||
20102122,
|
||
11201212,
|
||
1303,
|
||
36000080,
|
||
11101121,
|
||
20112020,
|
||
5,
|
||
00000820,
|
||
11202101,
|
||
10012120,
|
||
5,
|
||
0,
|
||
08
|
||
#GOGOEND
|
||
100000,
|
||
#END
|
||
|
||
|
||
COURSE:Hard
|
||
LEVEL:5
|
||
BALLOON:
|
||
SCOREINIT:
|
||
SCOREDIFF:
|
||
NOTESDESIGNER2:Colin
|
||
|
||
|
||
#START
|
||
1210,
|
||
00100201,
|
||
0112,
|
||
00201201,
|
||
1500,
|
||
08101202,
|
||
1150,
|
||
0008,
|
||
1212,
|
||
1011,
|
||
10201210,
|
||
20102101,
|
||
5,
|
||
81201010,
|
||
22102101,
|
||
01201508,
|
||
12005008,
|
||
20102100,
|
||
1122,
|
||
11002010,
|
||
1500,
|
||
00000008,
|
||
1122,
|
||
1101,
|
||
10100500,
|
||
00081021,
|
||
1333,
|
||
30303031,
|
||
31401120,
|
||
1212,
|
||
1112,
|
||
10210210,
|
||
3333,
|
||
3000302010102011,
|
||
11
|
||
#GOGOSTART
|
||
202102,
|
||
10201012,
|
||
1312,
|
||
21012020,
|
||
20102102,
|
||
10201202,
|
||
1333,
|
||
6,
|
||
80202120,
|
||
10221010,
|
||
1312,
|
||
21012020,
|
||
20102102,
|
||
10201210,
|
||
1303,
|
||
36000080,
|
||
10101021,
|
||
2122,
|
||
5,
|
||
00000820,
|
||
10202101,
|
||
10012020,
|
||
5,
|
||
0,
|
||
08
|
||
#GOGOEND
|
||
100000,
|
||
#END
|
||
|
||
COURSE:Normal
|
||
LEVEL:4
|
||
BALLOON:
|
||
SCOREINIT:
|
||
SCOREDIFF:
|
||
NOTESDESIGNER1:Colin
|
||
|
||
|
||
#START
|
||
0100,
|
||
0100,
|
||
0102,
|
||
0100,
|
||
1500,
|
||
08100202,
|
||
1150,
|
||
0008,
|
||
1202,
|
||
1011,
|
||
1011,
|
||
10002101,
|
||
5,
|
||
8211,
|
||
20100101,
|
||
00201508,
|
||
12005008,
|
||
20100100,
|
||
1102,
|
||
12,
|
||
1500,
|
||
00000008,
|
||
12,
|
||
1101,
|
||
10100500,
|
||
00081020,
|
||
1303,
|
||
0303,
|
||
3412,
|
||
1012,
|
||
1012,
|
||
10010000,
|
||
3333,
|
||
3350,
|
||
08
|
||
#GOGOSTART
|
||
202100,
|
||
5811,
|
||
10500008,
|
||
11002000,
|
||
2500,
|
||
00000810,
|
||
1333,
|
||
6,
|
||
8500,
|
||
00081010,
|
||
1302,
|
||
21002020,
|
||
20100200,
|
||
1211,
|
||
1500,
|
||
0008,
|
||
1012,
|
||
0122,
|
||
5,
|
||
00000820,
|
||
10202001,
|
||
1012,
|
||
5,
|
||
0,
|
||
08
|
||
#GOGOEND
|
||
100000,
|
||
#END
|
||
|
||
|
||
COURSE:Easy
|
||
LEVEL:3
|
||
BALLOON:
|
||
SCOREINIT:
|
||
SCOREDIFF:
|
||
NOTESDESIGNER0:Colin
|
||
|
||
|
||
#START
|
||
0100,
|
||
0100,
|
||
0100,
|
||
0100,
|
||
1500,
|
||
08100000,
|
||
1150,
|
||
0008,
|
||
1202,
|
||
11,
|
||
0100,
|
||
0100,
|
||
5,
|
||
8200,
|
||
21,
|
||
10001508,
|
||
10005008,
|
||
20100100,
|
||
1100,
|
||
1,
|
||
1500,
|
||
00000008,
|
||
12,
|
||
1001,
|
||
10000500,
|
||
00081000,
|
||
1303,
|
||
0303,
|
||
0410,
|
||
11,
|
||
11,
|
||
10010000,
|
||
33,
|
||
35,
|
||
08
|
||
#GOGOSTART
|
||
100010,
|
||
5810,
|
||
10500008,
|
||
01002000,
|
||
2500,
|
||
00000810,
|
||
0303,
|
||
6,
|
||
8500,
|
||
00080010,
|
||
0302,
|
||
01002000,
|
||
2100,
|
||
11,
|
||
1500,
|
||
0008,
|
||
1002,
|
||
0102,
|
||
5,
|
||
00000820,
|
||
0220,
|
||
1012,
|
||
5,
|
||
0,
|
||
08
|
||
#GOGOEND
|
||
100000,
|
||
#END
|
||
|