generated from DragonRatTiger/Custom-Charts
315 lines
2.8 KiB
Plaintext
315 lines
2.8 KiB
Plaintext
TITLE:SOUVENIR
|
||
SUBTITLE:--BUMP OF CHICKEN / SPY×FAMILY
|
||
BPM:158
|
||
WAVE:SOUVENIR.ogg
|
||
OFFSET:-0.606
|
||
DEMOSTART:39.150
|
||
MAKER:Colin
|
||
|
||
COURSE:Oni
|
||
LEVEL:7
|
||
SCOREINIT:
|
||
SCOREDIFF:
|
||
NOTESDESIGNER3:Colin
|
||
|
||
#START
|
||
2112102202112212,
|
||
11211121,
|
||
1010201010102012,
|
||
11211121,
|
||
11211212,
|
||
11212112,
|
||
12211212,
|
||
1011201120101120,
|
||
1011201120202111,
|
||
21211122,
|
||
11211122,
|
||
11211211,
|
||
11221212,
|
||
11211121,
|
||
12121122,
|
||
1011201120102020,
|
||
1000400040004022,
|
||
1112,
|
||
1112,
|
||
1111,
|
||
10201110,
|
||
11211122,
|
||
11211111,
|
||
11211122,
|
||
1010201011201020,
|
||
1040400010202022,
|
||
#GOGOSTART
|
||
1010201210102010,
|
||
21221122,
|
||
11211121,
|
||
21122122,
|
||
11212121,
|
||
21212122,
|
||
1011201120112010,
|
||
201020102010202
|
||
#GOGOEND
|
||
2,
|
||
#GOGOSTART
|
||
1010201210102010,
|
||
21221122,
|
||
11211121,
|
||
21122122,
|
||
11212121,
|
||
21212122,
|
||
1011201120112010,
|
||
201020102010222
|
||
#GOGOEND
|
||
2,
|
||
#GOGOSTART
|
||
1010201120102010,
|
||
21212122,
|
||
1011201020102010,
|
||
21221112,
|
||
1010201020112010,
|
||
21212122,
|
||
1010201120102010,
|
||
2011201020102020,
|
||
11221121,
|
||
21212122,
|
||
11212121,
|
||
2010201021201020,
|
||
11212121,
|
||
21212122,
|
||
1010201120102010,
|
||
#GOGOEND
|
||
2011202212112112,
|
||
#END
|
||
|
||
COURSE:Hard
|
||
LEVEL:4
|
||
SCOREINIT:
|
||
SCOREDIFF:
|
||
NOTESDESIGNER2:Colin
|
||
|
||
#START
|
||
00000202,
|
||
11201120,
|
||
11201120,
|
||
11210120,
|
||
11201210,
|
||
11202110,
|
||
12201210,
|
||
11212112,
|
||
11212221,
|
||
21201120,
|
||
11201120,
|
||
11201210,
|
||
11201210,
|
||
11201120,
|
||
12101120,
|
||
11212120,
|
||
1444,
|
||
1112,
|
||
1112,
|
||
1111,
|
||
10201110,
|
||
11201120,
|
||
11201110,
|
||
11210121,
|
||
11211212,
|
||
14400000,
|
||
#GOGOSTART
|
||
60821121,
|
||
01201122,
|
||
11201120,
|
||
21102120,
|
||
11202120,
|
||
21202120,
|
||
11212121,
|
||
201020100010202
|
||
#GOGOEND
|
||
0,
|
||
#GOGOSTART
|
||
11201120,
|
||
21201120,
|
||
11201120,
|
||
21102120,
|
||
11202020,
|
||
21202102,
|
||
11212121,
|
||
201020200020002
|
||
#GOGOEND
|
||
0,
|
||
#GOGOSTART
|
||
10212021,
|
||
20112022,
|
||
10212021,
|
||
20221012,
|
||
10212120,
|
||
21202120,
|
||
11210120,
|
||
21202120,
|
||
11201120,
|
||
21202120,
|
||
11202120,
|
||
21202210,
|
||
11202120,
|
||
21202120,
|
||
11212121,
|
||
#GOGOEND
|
||
21200200,
|
||
#END
|
||
|
||
COURSE:Normal
|
||
LEVEL:4
|
||
SCOREINIT:
|
||
SCOREDIFF:
|
||
NOTESDESIGNER1:Colin
|
||
|
||
#START
|
||
#BARLINEOFF
|
||
0,
|
||
#BARLINEON
|
||
1110,
|
||
1110,
|
||
1110,
|
||
1110,
|
||
1110,
|
||
1110,
|
||
1110,
|
||
1110,
|
||
2220,
|
||
2220,
|
||
2220,
|
||
2220,
|
||
2220,
|
||
2220,
|
||
2222,
|
||
2222,
|
||
50080005,
|
||
0008,
|
||
5,
|
||
0800,
|
||
10110101,
|
||
00002220,
|
||
20220205,
|
||
00000008,
|
||
,
|
||
#GOGOSTART
|
||
60833033,
|
||
00020222,
|
||
33368333,
|
||
00020222,
|
||
5,
|
||
00000008,
|
||
1111,
|
||
101010001000100
|
||
#GOGOEND
|
||
0,
|
||
#GOGOSTART
|
||
30333033,
|
||
00022226,
|
||
00000008,
|
||
00020222,
|
||
5,
|
||
00000008,
|
||
1111,
|
||
101010002020200
|
||
#GOGOEND
|
||
0,
|
||
#GOGOSTART
|
||
2220,
|
||
2220,
|
||
2220,
|
||
2220,
|
||
2220,
|
||
2220,
|
||
2222,
|
||
1111,
|
||
1110,
|
||
1110,
|
||
1110,
|
||
1110,
|
||
1110,
|
||
1110,
|
||
1111,
|
||
#GOGOEND
|
||
10101200,
|
||
#END
|
||
|
||
COURSE:Easy
|
||
LEVEL:2
|
||
SCOREINIT:
|
||
SCOREDIFF:
|
||
NOTESDESIGNER0:Colin
|
||
|
||
#START
|
||
#BARLINEOFF
|
||
0,
|
||
#BARLINEON
|
||
1010,
|
||
1010,
|
||
1010,
|
||
1010,
|
||
1010,
|
||
1010,
|
||
1010,
|
||
1010,
|
||
2020,
|
||
2020,
|
||
2020,
|
||
2020,
|
||
2020,
|
||
2020,
|
||
2020,
|
||
2020,
|
||
50080005,
|
||
0008,
|
||
5,
|
||
0800,
|
||
1101,
|
||
1,
|
||
20020205,
|
||
00000008,
|
||
,
|
||
#GOGOSTART
|
||
60803003,
|
||
,
|
||
30360008,
|
||
,
|
||
5,
|
||
00000008,
|
||
1010,
|
||
100010001000100
|
||
#GOGOEND
|
||
0,
|
||
#GOGOSTART
|
||
30003003,
|
||
00000006,
|
||
00000008,
|
||
00020202,
|
||
5,
|
||
00000008,
|
||
1010,
|
||
100000002000000
|
||
#GOGOEND
|
||
0,
|
||
#GOGOSTART
|
||
2020,
|
||
2020,
|
||
2020,
|
||
2020,
|
||
2020,
|
||
2020,
|
||
2020,
|
||
1010,
|
||
1010,
|
||
1010,
|
||
1010,
|
||
1010,
|
||
1010,
|
||
1010,
|
||
1010,
|
||
#GOGOEND
|
||
10000200,
|
||
#END
|
||
|
||
|
||
|