Files
Colins_Custom_Charts/02 Anime/Sense/Sense.tja
T
2025-06-11 19:53:16 -04:00

94 lines
1.1 KiB
Plaintext

TITLE:Sense
SUBTITLE:--BAND-MAID / Platinum End
BPM:205
WAVE:Sense.ogg
OFFSET:-0.620
DEMOSTART:30.439
MAKER:Colin
COURSE:Oni
LEVEL:9
BALLOON:
SCOREINIT:
SCOREDIFF:
NOTESDESIGNER3:Colin
#START
#GOGOSTART
1010201210102010,
1010201210102010,
1010201210102010,
2111201210102111,
2110201210102010,
1010201210102010,
1010201022102111,
2020102011112010,
#GOGOEND
12011211,
0010102022101010,
2010201000102210,
0010201010201111,
1010201110101011,
2010201122112010,
1010201212102010,
1020101121121020,
10021000,
20021002,
10120101,
0010202010102111,
2222,
2222,
2222,
2010201020112010,
1220202211222010,
#SCROLL 1.2
4
#SCROLL 1.4
3
#SCROLL 1.6
3
#SCROLL 1.8
3,
#GOGOSTART
#SCROLL 2
30
#SCROLL 1
10201210102212,
1010201110102011,
1010221120102011,
1010201020221022,
1010201120102111,
2010201120102020,
1010201210102011,
21111111,
#GOGOEND
30006008,
33333033,
30303330,
3333,
3333,
3333,
3,
2110211021112111,
#GOGOSTART
2010201210102010,
1010201210102010,
1010201210102010,
1010201210102010,
1010201210102010,
1010201210102010,
#GOGOEND
3000300032223010,
2111211121112000,
#GOGOSTART
1210121012101210,
1210121012101210,
1210121012101210,
#GOGOEND
12,
2000000020001111,
2,
#END