generated from DragonRatTiger/Custom-Charts
270 lines
3.5 KiB
Plaintext
270 lines
3.5 KiB
Plaintext
TITLE:Shingan
|
|
SUBTITLE:--nulut feat. Keina Suda (balloon) / Shadowverse Flame
|
|
TITLEJA:心眼
|
|
SUBTITLEJA:ぬゆり feat. 須田景凪 (バルーン)「シャドウバース FLAME」より
|
|
PREIMAGE:Shingan.jpg
|
|
BGMOVIE:Shingan.mp4
|
|
WAVE:Shingan.ogg
|
|
BPM:135
|
|
OFFSET:0.628
|
|
DEMOSTART:63.964
|
|
MAKER:Colin
|
|
|
|
COURSE:Easy
|
|
LEVEL:2
|
|
SCOREINIT:
|
|
SCOREDIFF:
|
|
NOTESDESIGNER0:Colin
|
|
|
|
#START
|
|
,
|
|
1010,
|
|
1,
|
|
2020,
|
|
2,
|
|
1010,
|
|
1,
|
|
2020,
|
|
2,
|
|
#GOGOSTART
|
|
3010,
|
|
1110,
|
|
1010,
|
|
#GOGOEND
|
|
3,
|
|
2020,
|
|
2220,
|
|
2020,
|
|
2220,
|
|
2020,
|
|
2220,
|
|
1010,
|
|
1,
|
|
1110,
|
|
1010,
|
|
1110,
|
|
1010,
|
|
1110,
|
|
2020,
|
|
2220,
|
|
2022,
|
|
2,
|
|
1110,
|
|
2020,
|
|
2220,
|
|
1010,
|
|
1110,
|
|
1110,
|
|
,
|
|
#GOGOSTART
|
|
1010,
|
|
1110,
|
|
2020,
|
|
2220,
|
|
1010,
|
|
1110,
|
|
2022,
|
|
#GOGOEND
|
|
0,
|
|
#GOGOSTART
|
|
1020,
|
|
1110,
|
|
1020,
|
|
#GOGOEND
|
|
1000000000000003,
|
|
#END
|
|
|
|
COURSE:Normal
|
|
LEVEL:4
|
|
SCOREINIT:
|
|
SCOREDIFF:
|
|
NOTESDESIGNER1:Colin
|
|
|
|
#START
|
|
,
|
|
1010,
|
|
1,
|
|
2022,
|
|
2,
|
|
1010,
|
|
1110,
|
|
2022,
|
|
2,
|
|
#GOGOSTART
|
|
3010,
|
|
10111000,
|
|
1110,
|
|
#GOGOEND
|
|
3,
|
|
2220,
|
|
20202022,
|
|
2022,
|
|
2220,
|
|
20222020,
|
|
2220,
|
|
1110,
|
|
1,
|
|
10111010,
|
|
1010,
|
|
10111010,
|
|
1010,
|
|
10111000,
|
|
20222020,
|
|
2220,
|
|
20002220,
|
|
2010,
|
|
10111000,
|
|
20002022,
|
|
2220,
|
|
1110,
|
|
10111000,
|
|
1110,
|
|
,
|
|
#GOGOSTART
|
|
10111010,
|
|
10111000,
|
|
20202022,
|
|
2220,
|
|
10111010,
|
|
1110,
|
|
20222020,
|
|
#GOGOEND
|
|
0,
|
|
#GOGOSTART
|
|
10102011,
|
|
1110,
|
|
10102011,
|
|
#GOGOEND
|
|
1000000000000003,
|
|
#END
|
|
|
|
COURSE:Hard
|
|
LEVEL:4
|
|
SCOREINIT:
|
|
SCOREDIFF:
|
|
NOTESDESIGNER2:Colin
|
|
|
|
#START
|
|
00000022,
|
|
00220022,
|
|
00220022,
|
|
00220202,
|
|
00020222,
|
|
00220022,
|
|
02220222,
|
|
2000000020020020,
|
|
2,
|
|
#GOGOSTART
|
|
200000100000100002000200,
|
|
100000200000100002000200,
|
|
200000100000100002000200,
|
|
#GOGOEND
|
|
10000001,
|
|
100000200001000200200200,
|
|
100000100001001000200200,
|
|
100000200002001000100100,
|
|
100000200002000100000200,
|
|
100000200001000200200100,
|
|
100000200002000100200100,
|
|
100000200002000200200200,
|
|
1,
|
|
100100200002000200100200,
|
|
100000200001002000200000,
|
|
100000100100200002000100,
|
|
200200200002000000000000,
|
|
100100200002000200100200,
|
|
100000200001002000200000,
|
|
100000100100200002000100,
|
|
002000100002000100200200,
|
|
100001000100200000200000,
|
|
10121020,
|
|
100001000100200000100000,
|
|
20222010,
|
|
100001000100200000000000,
|
|
112200,
|
|
100001000200200000200000,
|
|
30010125,
|
|
#GOGOSTART
|
|
08210025,
|
|
08210022,
|
|
00120201,
|
|
00020122,
|
|
00220011,
|
|
01220112,
|
|
200000000100100010000200,
|
|
#GOGOEND
|
|
1,
|
|
#GOGOSTART
|
|
200000100000100002000200,
|
|
100000200000100002000200,
|
|
200000100000100002000200,
|
|
#GOGOEND
|
|
100000000000000000000003,
|
|
#END
|
|
|
|
COURSE:Oni
|
|
LEVEL:8
|
|
BALLOON:6
|
|
SCOREINIT:
|
|
SCOREDIFF:
|
|
NOTESDESIGNER3:Colin
|
|
|
|
#START
|
|
000000
|
|
#SCROLL 1.3
|
|
22,
|
|
100101200202100100201002,
|
|
100101200202101100201002,
|
|
100101200202100100201002,
|
|
100101200202101100201002,
|
|
100101200202100100201002,
|
|
100101200202101100201002,
|
|
100201200202100201201200,
|
|
101201102101201202000000,
|
|
#GOGOSTART
|
|
300200101202101202001201,
|
|
201101200100201102001200,
|
|
101202101201101202001201,
|
|
#GOGOEND
|
|
20000001,
|
|
100200200101002201200202,
|
|
100200100101001002200200,
|
|
100000200202001001100100,
|
|
100100201202000100200200,
|
|
100200200201001202100100,
|
|
100201202202001102200200,
|
|
100000200102001202200200,
|
|
100000100200200102000100,
|
|
100100200102002201200200,
|
|
200100200101002102200200,
|
|
100000200100200102000100,
|
|
200200202202000100100200,
|
|
200200200202002002200101,
|
|
200200200202002001100200,
|
|
100000200200201102000102,
|
|
102000202202001001201200,
|
|
300001000200100100202200,
|
|
100102201201100100201101,
|
|
100101001200100100202200,
|
|
100102201201100100201101,
|
|
100101001200100100202200,
|
|
100102201201100100201101,
|
|
100101001200202101202202,
|
|
101201102101200100200200,
|
|
#GOGOSTART
|
|
300200101200100200101202,
|
|
100200100202101201100200,
|
|
101200100200102202100202,
|
|
100200101200100202100200,
|
|
100200101202100200100202,
|
|
100200101200100200101200,
|
|
102200101200100201001200,
|
|
#GOGOEND
|
|
3007,
|
|
#GOGOSTART
|
|
800200101202101202001201,
|
|
201101200100201102001200,
|
|
101202101201101202001201,
|
|
#GOGOEND
|
|
200000200000200000200003,
|
|
#END |