generated from DragonRatTiger/Custom-Charts
769 lines
6.9 KiB
Plaintext
769 lines
6.9 KiB
Plaintext
TITLE:Yu-Ke
|
||
SUBTITLE:--LiSA / Sword Art Online:Progressive -Aria of a Starless Night-
|
||
BPM:180
|
||
WAVE:Yu-Ke.ogg
|
||
OFFSET:-8.722
|
||
DEMOSTART:183.888
|
||
BGMOVIE:Yu-Ke.mp4
|
||
MAKER:Colin
|
||
|
||
COURSE:Oni
|
||
LEVEL:9
|
||
BALLOON:80
|
||
SCOREINIT:
|
||
SCOREDIFF:
|
||
NOTESDESIGNER3:Colin
|
||
|
||
#START
|
||
12112122,
|
||
12012210,
|
||
1010202010102022,
|
||
1020201000000022,
|
||
5000081000000000,
|
||
5000081000000212,
|
||
1001002001002010,
|
||
1120201120102022,
|
||
1000001010201022,
|
||
1000002010202211,
|
||
2001002210201022,
|
||
1010111122212111,
|
||
11202020,
|
||
2222,
|
||
1222,
|
||
2222,
|
||
11202020,
|
||
2222,
|
||
1222,
|
||
2121,
|
||
2000101120112022,
|
||
1010201000102022,
|
||
1000201110201020,
|
||
1010201020112022,
|
||
1011202210112010,
|
||
2022101020021020,
|
||
10212120,
|
||
10212121,
|
||
21202122,
|
||
11212120,
|
||
1000201010201220,
|
||
1010101010101120,
|
||
31313131,
|
||
0020222022222222,
|
||
#GOGOSTART
|
||
3000402210112010,
|
||
1010202212112220,
|
||
1011201220122011,
|
||
1011201120221122,
|
||
1020202210112011,
|
||
1011201120112022,
|
||
1011201110401040,
|
||
1010201021112022,
|
||
3000402210102022,
|
||
1010202210112020,
|
||
1010201120401040,
|
||
1010202212112022,
|
||
1020102010221010,
|
||
20220220,
|
||
#GOGOEND
|
||
10211202,
|
||
1011202010101020,
|
||
1010201120102010,
|
||
0011202210101020,
|
||
1000200010201011,
|
||
1020202050000008,
|
||
1000201120221022,
|
||
1010201210102022,
|
||
1010201020111022,
|
||
1011201110201022,
|
||
1020101010102011,
|
||
1010102210112010,
|
||
1010202010112010,
|
||
32223222,
|
||
1011201210201022,
|
||
1020201120221020,
|
||
1020122210201022,
|
||
1022102210221111,
|
||
10211121,
|
||
1010202210010010,
|
||
10210120,
|
||
10210120,
|
||
10210120,
|
||
1022102210212020,
|
||
1010201022102020,
|
||
1010201010102022,
|
||
1020102010112010,
|
||
12221211,
|
||
1020122212221022,
|
||
1020122211112020,
|
||
1000211122102010,
|
||
0010201121112000,
|
||
1000122212221222,
|
||
1222122212221222,
|
||
1222122212221020,
|
||
01111111,
|
||
#GOGOSTART
|
||
3000402210112010,
|
||
1010202212112220,
|
||
1011201220122011,
|
||
1011201120221122,
|
||
1020202210112011,
|
||
1011201120112022,
|
||
1011201110401040,
|
||
1010201021112022,
|
||
3000402210102022,
|
||
1010202210112020,
|
||
1010201120401040,
|
||
1010202212112022,
|
||
1020102010221010,
|
||
2011202210112000,
|
||
1010202210102022,
|
||
1010202212221022,
|
||
1010201120102020,
|
||
1011201012221020,
|
||
1011201120112022,
|
||
1011202210201020,
|
||
1011202210201022,
|
||
1011202212211022,
|
||
1000102210201010,
|
||
2020102210201022,
|
||
1011202210201022,
|
||
1020101022221020,
|
||
11112111,
|
||
2010201010101022,
|
||
12112111,
|
||
#GOGOEND
|
||
50000008,
|
||
#BARLINEOFF
|
||
#SCROLL .9
|
||
2
|
||
#SCROLL .8
|
||
2
|
||
#SCROLL .7
|
||
2
|
||
#SCROLL .6
|
||
2,
|
||
#SCROLL .5
|
||
20202220,
|
||
2,
|
||
2,
|
||
2,
|
||
2,
|
||
2,
|
||
2,
|
||
2,
|
||
2,
|
||
#SCROLL .7
|
||
1010200010002122,
|
||
1010200010002122,
|
||
1010200010002022,
|
||
1010200010101022,
|
||
12121212,
|
||
3300,
|
||
#SCROLL 1
|
||
#BARLINEON
|
||
1111201111201111,
|
||
2011201120112222,
|
||
#GOGOSTART
|
||
1000402210112010,
|
||
1010202212112220,
|
||
1011201220122011,
|
||
1011201120221122,
|
||
1020202210112011,
|
||
1011201120112022,
|
||
1011201110401040,
|
||
1010201021112022,
|
||
3000402210102022,
|
||
1010202210112020,
|
||
1010201120401040,
|
||
1010202212112022,
|
||
1020102010221010,
|
||
21212121,
|
||
20112222,
|
||
1022102210221022,
|
||
12121212,
|
||
3000303000306008,
|
||
10211202,
|
||
1011202010101020,
|
||
1010201120102010,
|
||
0011202210101020,
|
||
1000200010201011,
|
||
12221122,
|
||
12210112,
|
||
0011202210112222,
|
||
10211202,
|
||
1011202010101020,
|
||
1010201120102010,
|
||
0011202210101020,
|
||
1000200010201011,
|
||
1020202050000008,
|
||
7,
|
||
0,
|
||
0,
|
||
0,
|
||
08,
|
||
#GOGOEND
|
||
#END
|
||
|
||
|
||
COURSE:Hard
|
||
LEVEL:6
|
||
BALLOON:30
|
||
SCOREINIT:
|
||
SCOREDIFF:
|
||
NOTESDESIGNER2:Colin
|
||
|
||
#START
|
||
12102120,
|
||
12010000,
|
||
11201120,
|
||
12010000,
|
||
5000081000000000,
|
||
5000081000000000,
|
||
1001002001002010,
|
||
12012120,
|
||
10011210,
|
||
10021220,
|
||
2001002010001020,
|
||
11010000,
|
||
1222,
|
||
2222,
|
||
1222,
|
||
2222,
|
||
11202020,
|
||
2222,
|
||
1222,
|
||
2121,
|
||
20112000,
|
||
11210120,
|
||
1000201110200020,
|
||
10210022,
|
||
1212,
|
||
22112012,
|
||
10210120,
|
||
10210120,
|
||
21202102,
|
||
11202120,
|
||
10211012,
|
||
10110112,
|
||
3333,
|
||
0,
|
||
#GOGOSTART
|
||
3000400000111011,
|
||
12250008,
|
||
2000200022200010,
|
||
02212210,
|
||
12200121,
|
||
01211022,
|
||
10210404,
|
||
01212020,
|
||
3000400000111011,
|
||
12222222,
|
||
50000081,
|
||
02210210,
|
||
10200121,
|
||
20210250,
|
||
#GOGOEND
|
||
08201201,
|
||
01221020,
|
||
10201201,
|
||
01221012,
|
||
1000200010201011,
|
||
1020202050000008,
|
||
10212210,
|
||
11201120,
|
||
1010200020111020,
|
||
10211210,
|
||
12101121,
|
||
01101120,
|
||
10021021,
|
||
33,
|
||
11210210,
|
||
12010212,
|
||
10111012,
|
||
1111,
|
||
10201120,
|
||
1000200010010010,
|
||
1110,
|
||
1001001000101000,
|
||
10010020,
|
||
1000102220002020,
|
||
10210022,
|
||
10210122,
|
||
10121121,
|
||
02221011,
|
||
12110122,
|
||
02121022,
|
||
10210121,
|
||
0010201020222000,
|
||
1111,
|
||
1111,
|
||
10101112,
|
||
01111111,
|
||
#GOGOSTART
|
||
3000400000111011,
|
||
12250008,
|
||
2000200022200010,
|
||
02212210,
|
||
12200121,
|
||
01211022,
|
||
10210404,
|
||
01212020,
|
||
3000400000111011,
|
||
12222222,
|
||
50000081,
|
||
02210210,
|
||
10200121,
|
||
20212020,
|
||
1010200011102000,
|
||
1010200011102000,
|
||
1010200011102000,
|
||
1010200011102000,
|
||
1010200011102000,
|
||
1010200011102000,
|
||
1010200011102000,
|
||
1111,
|
||
10120120,
|
||
1111,
|
||
10120202,
|
||
01220222,
|
||
11,
|
||
11,
|
||
11,
|
||
#GOGOEND
|
||
50000008,
|
||
#BARLINEOFF
|
||
#SCROLL .9
|
||
2
|
||
#SCROLL .8
|
||
2
|
||
#SCROLL .7
|
||
2
|
||
#SCROLL .6
|
||
2,
|
||
#SCROLL .5
|
||
20202220,
|
||
2,
|
||
2,
|
||
2,
|
||
2,
|
||
2,
|
||
2,
|
||
2,
|
||
2,
|
||
#SCROLL .7
|
||
11201020,
|
||
11201020,
|
||
1010200010002022,
|
||
20201012,
|
||
10021012,
|
||
3300,
|
||
7,
|
||
00000008,
|
||
#SCROLL 1
|
||
#BARLINEON
|
||
#GOGOSTART
|
||
3000400000111011,
|
||
12250008,
|
||
2000200022200010,
|
||
02212210,
|
||
12200121,
|
||
01211022,
|
||
10210404,
|
||
01212020,
|
||
3000400000111011,
|
||
12222222,
|
||
50000081,
|
||
02210210,
|
||
10200121,
|
||
20210250,
|
||
08102011,
|
||
2222,
|
||
10012000,
|
||
30330360,
|
||
08,
|
||
12101211,
|
||
1111,
|
||
12101210,
|
||
10202021,
|
||
01202022,
|
||
10210012,
|
||
10020202,
|
||
10102201,
|
||
01221100,
|
||
20101101,
|
||
01121012,
|
||
10101205,
|
||
0000008050000085,
|
||
0,
|
||
0,
|
||
0,
|
||
0,
|
||
00080000,
|
||
#GOGOEND
|
||
#END
|
||
|
||
COURSE:Normal
|
||
LEVEL:5
|
||
BALLOON:
|
||
SCOREINIT:
|
||
SCOREDIFF:
|
||
NOTESDESIGNER1:Colin
|
||
|
||
|
||
#START
|
||
#BARLINEOFF
|
||
0,
|
||
0,
|
||
0,
|
||
0,
|
||
#BARLINEON
|
||
30030000,
|
||
30030000,
|
||
2222,
|
||
50000008,
|
||
30030000,
|
||
30030000,
|
||
2222,
|
||
5000000000000008,
|
||
1,
|
||
1,
|
||
1,
|
||
1111,
|
||
1,
|
||
1,
|
||
1,
|
||
1222,
|
||
10010000,
|
||
10010000,
|
||
10010000,
|
||
1110,
|
||
12,
|
||
21,
|
||
1,
|
||
2,
|
||
1,
|
||
2,
|
||
1111,
|
||
11,
|
||
11,
|
||
1,
|
||
30400303,
|
||
01150008,
|
||
20202508,
|
||
1222,
|
||
10100202,
|
||
0111,
|
||
10010202,
|
||
0111,
|
||
30400303,
|
||
01150008,
|
||
20202508,
|
||
1222,
|
||
1,
|
||
40440460,
|
||
0810,
|
||
10101110,
|
||
10101110,
|
||
10101110,
|
||
10101110,
|
||
10050008,
|
||
10025000,
|
||
00000081,
|
||
10012000,
|
||
1111,
|
||
10021000,
|
||
11,
|
||
10021000,
|
||
33,
|
||
2220,
|
||
2220,
|
||
2220,
|
||
2220,
|
||
2220,
|
||
22,
|
||
1,
|
||
2,
|
||
1,
|
||
2,
|
||
1111,
|
||
11,
|
||
10001001,
|
||
0,
|
||
22220200,
|
||
0,
|
||
10010001,
|
||
01,
|
||
11,
|
||
11,
|
||
10101110,
|
||
0,
|
||
30400303,
|
||
01150008,
|
||
20202508,
|
||
1222,
|
||
10100202,
|
||
0111,
|
||
10010202,
|
||
0111,
|
||
30400303,
|
||
01150008,
|
||
20202508,
|
||
1222,
|
||
1,
|
||
1111,
|
||
1,
|
||
21,
|
||
2,
|
||
21,
|
||
2,
|
||
21,
|
||
2,
|
||
11,
|
||
10010000,
|
||
0,
|
||
10010000,
|
||
0,
|
||
3,
|
||
3,
|
||
33,
|
||
60000008,
|
||
0,
|
||
0,
|
||
2,
|
||
0,
|
||
2,
|
||
0,
|
||
2,
|
||
0,
|
||
22,
|
||
22,
|
||
2,
|
||
2,
|
||
2,
|
||
2,
|
||
22,
|
||
2200,
|
||
5,
|
||
00000008,
|
||
30400303,
|
||
01150008,
|
||
20202508,
|
||
1222,
|
||
10100202,
|
||
0111,
|
||
10010202,
|
||
0111,
|
||
30400303,
|
||
01150008,
|
||
20202508,
|
||
1222,
|
||
1,
|
||
2222,
|
||
1,
|
||
11,
|
||
10001003,
|
||
30330368,
|
||
11,
|
||
1011,
|
||
11,
|
||
1011,
|
||
11,
|
||
1011,
|
||
11,
|
||
1011,
|
||
22,
|
||
2220,
|
||
22,
|
||
2220,
|
||
20002001,
|
||
11,
|
||
5,
|
||
0,
|
||
0,
|
||
0,
|
||
00080000,
|
||
#END
|
||
|
||
COURSE:Easy
|
||
LEVEL:4
|
||
BALLOON:
|
||
SCOREINIT:
|
||
SCOREDIFF:
|
||
NOTESDESIGNER0:Colin
|
||
|
||
|
||
#START
|
||
#BARLINEOFF
|
||
0,
|
||
0,
|
||
0,
|
||
0,
|
||
#BARLINEON
|
||
30030000,
|
||
30030000,
|
||
2,
|
||
50000008,
|
||
30030000,
|
||
30030000,
|
||
2,
|
||
5000000000000008,
|
||
1,
|
||
1,
|
||
1,
|
||
1,
|
||
1,
|
||
1,
|
||
1,
|
||
1002,
|
||
10010000,
|
||
1,
|
||
10010000,
|
||
11,
|
||
12,
|
||
01,
|
||
0,
|
||
2,
|
||
0,
|
||
2,
|
||
11,
|
||
1,
|
||
11,
|
||
1,
|
||
30400303,
|
||
00050008,
|
||
00000508,
|
||
12,
|
||
10000202,
|
||
0100,
|
||
10010002,
|
||
0100,
|
||
30400303,
|
||
00050008,
|
||
00000508,
|
||
1,
|
||
1,
|
||
40440460,
|
||
0810,
|
||
1,
|
||
11,
|
||
1,
|
||
11,
|
||
1,
|
||
1,
|
||
0,
|
||
1,
|
||
1,
|
||
11,
|
||
1,
|
||
1,
|
||
33,
|
||
2,
|
||
2,
|
||
2,
|
||
2,
|
||
2,
|
||
2,
|
||
1,
|
||
0,
|
||
1,
|
||
0,
|
||
1,
|
||
11,
|
||
10000001,
|
||
0,
|
||
20000200,
|
||
1,
|
||
10000001,
|
||
0,
|
||
1,
|
||
1,
|
||
1,
|
||
0,
|
||
30400303,
|
||
00050008,
|
||
00000508,
|
||
1,
|
||
10000202,
|
||
0101,
|
||
10010202,
|
||
0101,
|
||
30400303,
|
||
00050008,
|
||
00000508,
|
||
0202,
|
||
1,
|
||
11,
|
||
1,
|
||
2,
|
||
2,
|
||
2,
|
||
2,
|
||
2,
|
||
2,
|
||
1,
|
||
1,
|
||
0,
|
||
1,
|
||
0,
|
||
3,
|
||
3,
|
||
33,
|
||
60000008,
|
||
0,
|
||
0,
|
||
2,
|
||
0,
|
||
2,
|
||
0,
|
||
2,
|
||
0,
|
||
22,
|
||
22,
|
||
2,
|
||
2,
|
||
2,
|
||
2,
|
||
22,
|
||
2,
|
||
5,
|
||
00000008,
|
||
30400303,
|
||
00050008,
|
||
00000508,
|
||
0002,
|
||
10000202,
|
||
0101,
|
||
10010002,
|
||
0101,
|
||
30400303,
|
||
00050008,
|
||
00000508,
|
||
0202,
|
||
1,
|
||
22,
|
||
1,
|
||
1,
|
||
10000003,
|
||
30330368,
|
||
1,
|
||
1,
|
||
1,
|
||
1,
|
||
1,
|
||
1,
|
||
1,
|
||
11,
|
||
2,
|
||
2,
|
||
2,
|
||
2,
|
||
2,
|
||
11,
|
||
5,
|
||
0,
|
||
0,
|
||
0,
|
||
00080000,
|
||
#END
|
||
|