generated from DragonRatTiger/Custom-Charts
340 lines
3.6 KiB
Plaintext
340 lines
3.6 KiB
Plaintext
TITLE:ambiguous
|
|
TITLEJA:ambiguous
|
|
SUBTITLE:--GARNiDELiA / KILL la KILL
|
|
SUBTITLEJA:--GARNiDELiA「キルラキル」より
|
|
BPM:178
|
|
WAVE:ambiguous.ogg
|
|
PREIMAGE:ambiguous.png
|
|
OFFSET:-1.914
|
|
DEMOSTART:53.143
|
|
BGMOVIE:ambiguous.mp4
|
|
MAKER:Colin
|
|
|
|
COURSE:Oni
|
|
LEVEL:8
|
|
SCOREINIT:
|
|
SCOREDIFF:
|
|
NOTESDESIGNER3:Colin
|
|
|
|
#START
|
|
#MEASURE 8/4
|
|
#SCROLL 0.5
|
|
1011020101010100,
|
|
2021010201010202,
|
|
50000008,
|
|
#MEASURE 4/4
|
|
#GOGOSTART
|
|
#SCROLL 1
|
|
1010201210102010,
|
|
0010201210102022,
|
|
1010201210102010,
|
|
0010202210222022,
|
|
1010201210102010,
|
|
0010201210102020,
|
|
1010201210102030,
|
|
0010201210
|
|
#GOGOEND
|
|
400000,
|
|
10102011,
|
|
00120022,
|
|
02000011,
|
|
10101012,
|
|
1020102210201022,
|
|
1020102210201022,
|
|
1020102010201022,
|
|
1010202210102022,
|
|
1010201210102011,
|
|
1010201210102022,
|
|
1010201210102022,
|
|
1210201210102012,
|
|
1010201210102022,
|
|
1010201210102022,
|
|
1010201210102022,
|
|
1210202210102010,
|
|
02111122,
|
|
02201021,
|
|
01221122,
|
|
02102021,
|
|
01212222,
|
|
02020104,
|
|
03030403,
|
|
0020202020112000,
|
|
#GOGOSTART
|
|
1020112010201120,
|
|
1020112012021120,
|
|
1020112010201120,
|
|
1022112010201120,
|
|
1020112012021120,
|
|
1020112010201120,
|
|
1020112012021120,
|
|
1022112010222222,
|
|
1020112010201122,
|
|
1020112012021120,
|
|
1020112010202210,
|
|
1022112010202222,
|
|
1020102210102011,
|
|
1010201122222222,
|
|
10102011101020
|
|
#GOGOEND
|
|
30,
|
|
03430420,
|
|
#GOGOSTART
|
|
1010201210102010,
|
|
0010201210102022,
|
|
1010201210102010,
|
|
1011201211222222,
|
|
1010201210102022,
|
|
1010201210102022,
|
|
1010201210102010,
|
|
0020222210201011,
|
|
1440440
|
|
#GOGOEND
|
|
3,
|
|
#END
|
|
|
|
COURSE:Hard
|
|
LEVEL:7
|
|
BALLOON:1
|
|
SCOREINIT:
|
|
SCOREDIFF:
|
|
NOTESDESIGNER2:Colin
|
|
|
|
#START
|
|
1001,
|
|
2010,
|
|
1,
|
|
1010,
|
|
5,
|
|
0082,
|
|
#GOGOSTART
|
|
12121202,
|
|
01212122,
|
|
11221212,
|
|
01212122,
|
|
12121201,
|
|
01212122,
|
|
1022202010102010,
|
|
01221
|
|
#GOGOEND
|
|
200,
|
|
1111,
|
|
1111,
|
|
1111,
|
|
10101012,
|
|
1022202010222020,
|
|
1022202010222020,
|
|
1022202010222020,
|
|
1020201020207008,
|
|
1010222220222020,
|
|
1011102220202022,
|
|
2022201110111022,
|
|
2011102220222020,
|
|
1010101011102020,
|
|
1011101000102010,
|
|
0020100000111010,
|
|
0011102020201010,
|
|
01221211,
|
|
02102001,
|
|
02121122,
|
|
02111021,
|
|
01121221,
|
|
01212103,
|
|
23232306,
|
|
0082,
|
|
#GOGOSTART
|
|
1011101111111020,
|
|
1011102022222011,
|
|
1011101000200050,
|
|
81211121,
|
|
11211211,
|
|
2010201110222020,
|
|
30330306,
|
|
00000008,
|
|
1011101111111020,
|
|
1011102022222011,
|
|
1011101000200050,
|
|
81211121,
|
|
11211211,
|
|
2010201110222020,
|
|
3033030
|
|
#GOGOEND
|
|
3,
|
|
03030340,
|
|
#GOGOSTART
|
|
12121202,
|
|
01212122,
|
|
11221212,
|
|
01212122,
|
|
12121201,
|
|
01212122,
|
|
1022202010102010,
|
|
01221200,
|
|
0000000
|
|
#GOGOEND
|
|
3,
|
|
#END
|
|
|
|
COURSE:Normal
|
|
LEVEL:5
|
|
BALLOON:1
|
|
SCOREINIT:
|
|
SCOREDIFF:
|
|
NOTESDESIGNER1:Colin
|
|
|
|
#START
|
|
1001,
|
|
2010,
|
|
1,
|
|
1010,
|
|
5,
|
|
0082,
|
|
#GOGOSTART
|
|
12021202,
|
|
01202122,
|
|
10221202,
|
|
01202122,
|
|
02121201,
|
|
01212122,
|
|
02221101,
|
|
01221
|
|
#GOGOEND
|
|
200,
|
|
1111,
|
|
1111,
|
|
1111,
|
|
10101012,
|
|
10201022,
|
|
10221022,
|
|
10201202,
|
|
1020201020207008,
|
|
11220222,
|
|
10102220,
|
|
20211120,
|
|
1111,
|
|
5,
|
|
00080222,
|
|
00200011,
|
|
01122211,
|
|
01221011,
|
|
02102001,
|
|
02121022,
|
|
02111021,
|
|
01121221,
|
|
01212103,
|
|
03030306,
|
|
0082,
|
|
#GOGOSTART
|
|
11101120,
|
|
11102221,
|
|
10110205,
|
|
81221120,
|
|
11201221,
|
|
01210222,
|
|
30330306,
|
|
00000008,
|
|
11101120,
|
|
11102221,
|
|
10110205,
|
|
81221120,
|
|
11201221,
|
|
01210222,
|
|
3033030
|
|
#GOGOEND
|
|
3,
|
|
03030320,
|
|
#GOGOSTART
|
|
12021202,
|
|
01202122,
|
|
10221202,
|
|
01202122,
|
|
02121201,
|
|
01212122,
|
|
02221101,
|
|
01221200,
|
|
0000000
|
|
#GOGOEND
|
|
3,
|
|
#END
|
|
|
|
COURSE:Easy
|
|
LEVEL:3
|
|
BALLOON:1
|
|
SCOREINIT:
|
|
SCOREDIFF:
|
|
NOTESDESIGNER0:Colin
|
|
|
|
#START
|
|
1001,
|
|
2010,
|
|
1,
|
|
1010,
|
|
5,
|
|
0082,
|
|
#GOGOSTART
|
|
10001002,
|
|
0222,
|
|
10101002,
|
|
01002022,
|
|
01101101,
|
|
01202010,
|
|
1111,
|
|
10000
|
|
#GOGOEND
|
|
000,
|
|
1010,
|
|
1010,
|
|
1010,
|
|
1010,
|
|
1010,
|
|
1010,
|
|
1010,
|
|
1000001000007008,
|
|
10020000,
|
|
1122,
|
|
2202,
|
|
1111,
|
|
5,
|
|
00080202,
|
|
0201,
|
|
01020201,
|
|
01001011,
|
|
02200001,
|
|
02021022,
|
|
02002020,
|
|
1111,
|
|
10101003,
|
|
03030306,
|
|
0082,
|
|
#GOGOSTART
|
|
1112,
|
|
1122,
|
|
10100205,
|
|
81201020,
|
|
10201021,
|
|
01010202,
|
|
30330306,
|
|
00000008,
|
|
1112,
|
|
10102021,
|
|
10110205,
|
|
81011110,
|
|
10201201,
|
|
01210200,
|
|
3033030
|
|
#GOGOEND
|
|
3,
|
|
03030320,
|
|
#GOGOSTART
|
|
10020202,
|
|
01002020,
|
|
10200202,
|
|
01202002,
|
|
02020201,
|
|
01010102,
|
|
02020101,
|
|
01201200,
|
|
0000000
|
|
#GOGOEND
|
|
3,
|
|
#END
|