Files
Colins_Custom_Charts/02 Anime/request/request.tja
T
2025-12-20 15:50:25 -05:00

259 lines
2.8 KiB
Plaintext

TITLE:request
SUBTITLE:--TK from Ling tosite sigure feat. krage / Solo Leveling
TITLEJA:request
SUBTITLEJA:TK from 凛として時雨 feat. krage「俺だけレベルアップな件」より
PREIMAGE:request.png
BGMOVIE:request.mp4
WAVE:request.ogg
BPM:138.989
OFFSET:-0.853
DEMOSTART:58.914
MAKER:Colin
COURSE:Easy
LEVEL:2
SCOREINIT:
SCOREDIFF:
NOTESDESIGNER0:Colin
#START
1,
,
1,
,
2020,
2,
2020,
2,
1,
1,
1,
,
1010,
1110,
2020,
2220,
1010,
1110,
20050000,
8,
1010,
1110,
2020,
2220,
1010,
1010,
2,
,
20020002,
,
10010001,
,
20020202,
,
#GOGOSTART
1010,
1110,
2020,
2222,
2020,
20000005,
,
0080,
1010,
1110,
20002005,
0008,
1010,
1110,
2220,
100010001000000
#GOGOEND
0,
#END
COURSE:Normal
LEVEL:4
SCOREINIT:
SCOREDIFF:
NOTESDESIGNER1:Colin
#START
1,
1010,
1,
1010,
2020,
2002002000000000,
2020,
2002002000000000,
1010,
1001001000000000,
1010,
1001001000000000,
1010,
11101000,
2020,
22202000,
1010,
11101000,
20050000,
8022,
10101011,
1110,
20202022,
2220,
1110,
1110,
20020002,
,
20020002,
,
10010001,
,
20020202,
,
#GOGOSTART
10101011,
1110,
20202022,
2222,
2220,
20222005,
,
0080,
10101011,
1110,
20202025,
0008,
10111010,
1110,
20222020,
100010001000101
#GOGOEND
0,
#END
COURSE:Hard
LEVEL:4
SCOREINIT:
SCOREDIFF:
NOTESDESIGNER2:Colin
#START
2002002020020020,
2002002020020020,
2002002020020020,
2002002020020020,
1000201020020020,
00022122,
2000201020020020,
0000002010011020,
00021022,
00022022,
02012012,
02012222,
0020002020020020,
02012212,
0010002020020020,
02022221,
0010001020020020,
1001002020010020,
5,
80022022,
11010101,
01122022,
01010211,
01100122,
2011001020110020,
22022102,
22120202,
01000001,
22220202,
00000002,
2001102000200020,
01000001,
20220201,
,
#GOGOSTART
10201120,
1000200022202020,
10210120,
1110222010102000,
10201121,
01201120,
10210121,
01211120,
10201120,
10201120,
10210125,
0008,
2020200020020020,
0010101010010020,
0010202020010020,
002000200020002
#GOGOEND
0,
#END
COURSE:Oni
LEVEL:8
SCOREINIT:
SCOREDIFF:
NOTESDESIGNER3:Colin
#START
1002012021021021,
2012012120112022,
1002012021021021,
2012012120112022,
1000201020120220,
2112012020112020,
2011201020120120,
2112012010111022,
1012012010112012,
2012012020112022,
1012021020121010,
2112021022112222,
2011012020120120,
1221021020201120,
1021012021120120,
1221012020112112,
1021011020120120,
1021012020110121,
2021012010222020,
1221012010112211,
2011201120112010,
2211201120112010,
2011201120112010,
2211201120112010,
2021011020120020,
1222122212221222,
22120202,
01000001,
22220202,
00000002,
2001102000200020,
01000001,
20220201,
1030,
#GOGOSTART
3011011020210120,
1021011012221022,
1011202011102000,
1222122012201222,
1010201210102022,
1010201012201022,
1022122212221222,
1022112120102000,
1012012020210110,
2012012012221222,
1012101022112012,
1220122012201121,
2010201020120220,
2010202020122022,
1010201020120110,
102212221222112
#GOGOEND
2,
#END