generated from DragonRatTiger/Custom-Charts
373 lines
3.3 KiB
Plaintext
373 lines
3.3 KiB
Plaintext
TITLE:terminal terminal
|
||
SUBTITLE:--Mayoi Hachikuji (CV:Emiri Katou) / Owarimonogatari
|
||
BPM:204
|
||
WAVE:terminal terminal.ogg
|
||
OFFSET:-0.568
|
||
DEMOSTART:47.626
|
||
BGMOVIE:.mp4
|
||
MAKER:Colin
|
||
|
||
COURSE:Oni
|
||
LEVEL:7
|
||
BALLOON:
|
||
SCOREINIT:
|
||
SCOREDIFF:
|
||
NOTESDESIGNER3:Colin
|
||
|
||
|
||
#START
|
||
#SCROLL .7
|
||
#GOGOSTART
|
||
100000000000200000000000200000001000200000000100,
|
||
000201001200,
|
||
100200102101,
|
||
000201101200,
|
||
100200102102,
|
||
100202101200,
|
||
100010200020100010200500,
|
||
00000810,
|
||
#GOGOEND
|
||
1111,
|
||
10120010,
|
||
1111,
|
||
10120010,
|
||
1111,
|
||
10120010,
|
||
1112,
|
||
101101211111,
|
||
200101200100,
|
||
202101202102,
|
||
101200202100,
|
||
201202101200,
|
||
100000002000100000000000100000000000200000200200,
|
||
101202100200,
|
||
1121,
|
||
101200101100,
|
||
21,
|
||
1212,
|
||
500000000000000800100010,
|
||
2000202210002000,
|
||
31,
|
||
101200100200,
|
||
1212,
|
||
100000001000200000200200100000000000200000000000,
|
||
100100200002,
|
||
1121,
|
||
200100200002,
|
||
101202100200,
|
||
1210,
|
||
1120,
|
||
1210,
|
||
201101200000,
|
||
#GOGOSTART
|
||
301202101201,
|
||
201202101201,
|
||
200200101102,
|
||
1215,
|
||
000800100010200000200000,
|
||
60086008,
|
||
600000000800100010200020,
|
||
100200101200,
|
||
100101200202,
|
||
101200201200,
|
||
101200101200,
|
||
101200100200,
|
||
100100200122,
|
||
102100200202,
|
||
101202101211,
|
||
202101200100,
|
||
301202101201,
|
||
201202101201,
|
||
200200101102,
|
||
1215,
|
||
000800100010200000200000,
|
||
60086008,
|
||
600000000800100010200020,
|
||
100200101200,
|
||
100101200202,
|
||
101200201200,
|
||
101200101200,
|
||
101200100200,
|
||
100100200122,
|
||
102100200202,
|
||
#GOGOEND
|
||
101202101211,
|
||
202101200100,
|
||
30320320,
|
||
005000000000000000800300,
|
||
#END
|
||
|
||
|
||
COURSE:Hard
|
||
LEVEL:6
|
||
BALLOON:
|
||
SCOREINIT:
|
||
SCOREDIFF:
|
||
NOTESDESIGNER2:Colin
|
||
|
||
|
||
#START
|
||
#GOGOSTART
|
||
#SCROLL .7
|
||
100000000000200000000000200000101000100000000100,
|
||
000001001100,
|
||
100000101101,
|
||
000001001100,
|
||
100000101101,
|
||
000001101200,
|
||
100000200020100010100500,
|
||
00000810,
|
||
#GOGOEND
|
||
1111,
|
||
10120010,
|
||
1111,
|
||
10120010,
|
||
1111,
|
||
10120010,
|
||
1112,
|
||
101101101101,
|
||
200101100100,
|
||
202101000102,
|
||
1221,
|
||
200201001200,
|
||
10101022,
|
||
101200100200,
|
||
1121,
|
||
101200101100,
|
||
21,
|
||
1212,
|
||
500000000000000800100010,
|
||
1212,
|
||
31,
|
||
101100100200,
|
||
1212,
|
||
101200100200,
|
||
1120,
|
||
1121,
|
||
22,
|
||
101200100200,
|
||
1210,
|
||
1120,
|
||
1210,
|
||
201101200000,
|
||
#GOGOSTART
|
||
3333,
|
||
3333,
|
||
300200101102,
|
||
1215,
|
||
08101010,
|
||
60086008,
|
||
600000000800100010200000,
|
||
100200101200,
|
||
300303000200,
|
||
1222,
|
||
1212,
|
||
1212,
|
||
100100200102,
|
||
100100200102,
|
||
3,
|
||
300101200100,
|
||
3333,
|
||
3333,
|
||
300200101102,
|
||
0215,
|
||
000800100010200000200000,
|
||
60086008,
|
||
600000000800100010200000,
|
||
100200101200,
|
||
1122,
|
||
101200001200,
|
||
101200101200,
|
||
1212,
|
||
1121,
|
||
1122,
|
||
#GOGOEND
|
||
1,
|
||
0,
|
||
30030030,
|
||
005000000000000000800300,
|
||
#END
|
||
|
||
|
||
COURSE:Normal
|
||
LEVEL:4
|
||
BALLOON:
|
||
SCOREINIT:
|
||
SCOREDIFF:
|
||
NOTESDESIGNER1:Colin
|
||
|
||
|
||
#START
|
||
#SCROLL .7
|
||
#GOGOSTART
|
||
1210,
|
||
1210,
|
||
1210,
|
||
1210,
|
||
1210,
|
||
1210,
|
||
10201005,
|
||
00000008,
|
||
#GOGOEND
|
||
1110,
|
||
1110,
|
||
1110,
|
||
1110,
|
||
1110,
|
||
1110,
|
||
1110,
|
||
1111,
|
||
21,
|
||
21,
|
||
21,
|
||
21,
|
||
22,
|
||
2,
|
||
1111,
|
||
1111,
|
||
3,
|
||
11,
|
||
5008,
|
||
11,
|
||
5,
|
||
0,
|
||
08,
|
||
11,
|
||
1120,
|
||
12,
|
||
12,
|
||
1112,
|
||
15,
|
||
00080000,
|
||
11,
|
||
1120,
|
||
#GOGOSTART
|
||
1112,
|
||
1111,
|
||
50000008,
|
||
0005,
|
||
08101010,
|
||
5,
|
||
0081,
|
||
1111,
|
||
5008,
|
||
1111,
|
||
58,
|
||
11,
|
||
3340,
|
||
3340,
|
||
12,
|
||
11,
|
||
1120,
|
||
11,
|
||
1,
|
||
2,
|
||
1110,
|
||
33,
|
||
3,
|
||
11,
|
||
1,
|
||
22,
|
||
2,
|
||
1111,
|
||
5,
|
||
0008,
|
||
#GOGOEND
|
||
1,
|
||
2,
|
||
30030030,
|
||
06000080,
|
||
3,
|
||
#END
|
||
|
||
COURSE:Easy
|
||
LEVEL:3
|
||
BALLOON:
|
||
SCOREINIT:
|
||
SCOREDIFF:
|
||
NOTESDESIGNER0:Colin
|
||
|
||
|
||
#START
|
||
#SCROLL .7
|
||
#GOGOSTART
|
||
11,
|
||
11,
|
||
11,
|
||
11,
|
||
11,
|
||
11,
|
||
10001005,
|
||
00000008,
|
||
#GOGOEND
|
||
1,
|
||
1,
|
||
1,
|
||
1,
|
||
1,
|
||
1,
|
||
1,
|
||
11,
|
||
21,
|
||
21,
|
||
21,
|
||
21,
|
||
22,
|
||
2,
|
||
11,
|
||
11,
|
||
3,
|
||
11,
|
||
5008,
|
||
11,
|
||
5,
|
||
0,
|
||
08,
|
||
1,
|
||
12,
|
||
1,
|
||
1,
|
||
11,
|
||
15,
|
||
00080000,
|
||
1,
|
||
12,
|
||
#GOGOSTART
|
||
11,
|
||
11,
|
||
50000008,
|
||
0005,
|
||
08100010,
|
||
5,
|
||
0081,
|
||
0101,
|
||
5008,
|
||
11,
|
||
58,
|
||
1,
|
||
3340,
|
||
3340,
|
||
1,
|
||
1,
|
||
12,
|
||
11,
|
||
1,
|
||
2,
|
||
11,
|
||
33,
|
||
3,
|
||
1,
|
||
1,
|
||
2,
|
||
2,
|
||
1011,
|
||
5,
|
||
0008,
|
||
#GOGOEND
|
||
1,
|
||
2,
|
||
3003,
|
||
06000080,
|
||
3,
|
||
#END
|