Files
Colins_Custom_Charts/03 VOCALOID/April Star/April Star.tja
T
2025-12-20 15:52:49 -05:00

922 lines
6.3 KiB
Plaintext

TITLE:April Star
SUBTITLE:--OSTER project feat. Teto Kasane
TITLEJA:エイプリルスター
SUBTITLEJA:OSTER project feat. 重音テト
PREIMAGE:April Star.jpg
BPM:185
OFFSET:-1.363
DEMOSTART:62.335
BGMOVIE:April Star.mp4
WAVE:April Star.ogg
GENRE:ボーカロイド
MAKER:Colin
COURSE:Oni
LEVEL:9
SCOREINIT:
SCOREDIFF:
NOTESDESIGNER3:Colin
#START
,
,
,
,
,
,
,
,
,
#GOGOSTART
0,
,
,
,
,
,
,
,
#GOGOEND
0,
,
,
,
,
,
,
,
,
,
,
,
,
,
,
,
,
,
,
,
,
,
,
,
,
,
,
,
,
,
#GOGOSTART
0,
,
,
,
,
,
,
,
,
,
,
,
,
,
,
,
,
,
,
,
,
,
,
,
,
,
,
,
,
,
,
#GOGOEND
0,
#GOGOSTART
0,
,
,
,
,
,
0000000
#GOGOEND
0,
,
,
,
,
,
,
,
,
,
,
,
,
,
,
,
,
,
,
#GOGOSTART
0,
,
,
,
,
,
,
,
,
,
,
,
,
,
0000000
#GOGOEND
0,
,
,
,
,
,
,
,
,
,
,
,
,
,
,
,
,
,
,
,
#GOGOSTART
0,
,
,
,
,
,
,
,
,
,
,
,
,
,
0000000
#GOGOEND
0,
#GOGOSTART
000000000000000
#GOGOEND
0,
#GOGOSTART
0,
,
,
,
,
,
,
,
,
0000000
#GOGOEND
0,
#GOGOSTART
#SCROLL 1.1
0,
000000000000000
#GOGOEND
0,
#GOGOSTART
#SCROLL 1.2
000000000000000
#GOGOEND
0,
#GOGOSTART
#SCROLL 1.3
000000000000000
#GOGOEND
0,
#GOGOSTART
#SCROLL 1.4
0,
#SCROLL 1.3
000000000000000
#GOGOEND
0,
#GOGOSTART
#SCROLL 1.5
000000000000000
#GOGOEND
0,
#GOGOSTART
#SCROLL 1.6
000000000000000
#GOGOEND
0,
#GOGOSTART
#SCROLL 1.7
0000000
#GOGOEND
0,
#BPMCHANGE 37
#SCROLL 5
0,
#END
COURSE:Hard
LEVEL:6
BALLOON:4,4,14,4,4,30,16,4,14,4,12
SCOREINIT:
SCOREDIFF:
NOTESDESIGNER2:Colin
#START
11020011,
10021211,
10011002,
20011000,
20001121,
02001221,
10012001,
21010200,
00000110,
#GOGOSTART
11210120,
1010201110102000,
11210120,
1010201110102000,
11210120,
1010201110102000,
11210120,
1010201110102000,
#GOGOEND
20121112,
01201122,
10221012,
10012020,
20221122,
01210121,
10201121,
02210120,
12210022,
20201222,
20212021,
20211020,
22110021,
01202122,
20102101,
01012120,
21220101,
02120121,
01221212,
11210222,
11210125,
00000081,
1010201110102050,
00000008,
21240404,
01210212,
04433443,
00030303,
01210121,
1010,
#GOGOSTART
11207080,
1010201110102030,
00001022,
10021020,
11207080,
1010201110102030,
00001022,
10020120,
1002001010020010,
1002001020100000,
1001001020020010,
10012200,
2020201110102000,
1010201110100000,
22112127,
0008,
11207080,
1010201110102030,
00001022,
10021020,
11207080,
1010201110102030,
00001022,
10020120,
1002001010020010,
1002001020101010,
00022012,
02012200,
2020201110102000,
1010201110100000,
22112122,
#GOGOEND
20000100,
#GOGOSTART
11210121,
05000080,
11210121,
05000080,
40040004,
0600,
8000000
#GOGOEND
7,
,
0008,
10201001,
22010110,
20102112,
11010212,
10021002,
11222025,
00000008,
11112121,
2000201110102010,
0010201110102000,
11210120,
1010201110102000,
21210120,
12201121,
00212121,
2000000020000022,
#GOGOSTART
11210120,
11210122,
01201120,
11202120,
11201121,
0022201000102010,
01210120,
3003004010000000,
11202112,
0010201110102000,
12102121,
02121020,
10221012,
0010201000111020,
10101010202220
#GOGOEND
30,
,
00000022,
20100201,
00012111,
20220202,
02020202,
10222221,
01110011,
20210106,
,
00000008,
,
31111111,
21212121,
7,
8,
,
00404044,
42210122,
#GOGOSTART
11207080,
1010201110102030,
00001022,
10020120,
1002001010020010,
1002001020100000,
1001001020020010,
10012200,
2020201110102000,
1010201110100000,
22112127,
0008,
11207080,
1010201110102030,
0000102
#GOGOEND
2,
#GOGOSTART
300000003000000030000000300000004000000040000
#GOGOEND
000,
#GOGOSTART
6,
00000008,
11210120,
11220120,
1002001020010010,
1001002000100040,
1010200020222040,
0020101000202220,
12210122,
0121212
#GOGOEND
0,
#GOGOSTART
41210102,
101000102010201
#GOGOEND
0,
#GOGOSTART
401020002010200
#GOGOEND
0,
#GOGOSTART
401020002000201
#GOGOEND
0,
#GOGOSTART
40202121,
001020102020200
#GOGOEND
0,
#GOGOSTART
401020002000201
#GOGOEND
0,
#GOGOSTART
401020002010200
#GOGOEND
0,
#GOGOSTART
4700000
#GOGOEND
8,
#BPMCHANGE 37
#SCROLL 5
4,
#END
COURSE:Normal
LEVEL:4
SCOREINIT:
SCOREDIFF:
NOTESDESIGNER1:Colin
#START
2,
2,
2,
2,
2,
2,
2,
2,
,
#GOGOSTART
1010,
1,
1010,
1,
1010,
1,
1010,
1,
#GOGOEND
1120,
1011,
2010,
2010,
1120,
1,
1120,
2010,
1120,
1020,
1220,
2010,
1120,
1020,
1010,
2,
1010,
1,
1101,
2010,
1010,
1,
1010,
1,
2020,
20000005,
,
0080,
1210,
2020,
#GOGOSTART
1111,
10001002,
0210,
10020200,
1111,
10001012,
00201022,
20020220,
2120,
2120,
1210,
1220,
20222000,
20222000,
20202225,
00000008,
10101011,
10001012,
0011,
1010,
2120,
2120,
2220,
2220,
1111,
10101011,
00001002,
00011000,
1111,
1010,
2021,
#GOGOEND
2,
#GOGOSTART
10010001,
,
10010001,
,
20020002,
0202,
1001000
#GOGOEND
5,
,
,
8011,
1010,
2120,
2110,
1010,
1220,
2220,
2110,
1110,
1110,
1110,
2120,
2110,
10101005,
0008,
5008,
#GOGOSTART
6,
,
,
,
8,
1110,
1110,
2220,
2220,
1110,
1110,
1110,
1110,
2220,
2000000
#GOGOEND
1,
,
,
2,
,
2,
,
2,
,
20000006,
,
0008,
,
1111,
1111,
1,
3,
,
0333,
3,
#GOGOSTART
2022,
2,
1212,
1,
2120,
2110,
1210,
1220,
1210,
1110,
2220,
2220,
1110,
10101001,
1010100
#GOGOEND
0,
#GOGOSTART
100000000000000
#GOGOEND
0,
#GOGOSTART
5,
8,
2220,
2220,
1210,
1210,
2120,
2120,
1011,
1000100
#GOGOEND
0,
#GOGOSTART
3010,
100000000000000
#GOGOEND
0,
#GOGOSTART
300000001000000
#GOGOEND
0,
#GOGOSTART
300000001000000
#GOGOEND
0,
#GOGOSTART
3010,
300000001000000
#GOGOEND
0,
#GOGOSTART
300000001000000
#GOGOEND
0,
#GOGOSTART
300000001000000
#GOGOEND
0,
#GOGOSTART
3000100
#GOGOEND
0,
#BPMCHANGE 37
#SCROLL 5
3,
#END
COURSE:Easy
LEVEL:2
SCOREINIT:
SCOREDIFF:
NOTESDESIGNER0:Colin
#START
2,
2,
2,
2,
2,
2,
2,
2,
,
#GOGOSTART
1,
1,
1,
,
1,
1,
1,
,
#GOGOEND
1020,
0010,
2,
2,
1020,
,
1,
2,
1,
1,
1,
2,
1,
1,
1,
2,
1,
1,
0100,
2,
1,
1,
1,
1,
2,
00000005,
,
0080,
,
,
#GOGOSTART
1010,
1,
1010,
1,
1010,
1,
2020,
2,
2020,
2,
1010,
1,
2020,
2,
20002005,
00000008,
1010,
1,
1010,
1,
2020,
2,
2020,
2,
1,
10000001,
00000002,
,
1010,
1,
2020,
#GOGOEND
2,
#GOGOSTART
1,
,
1,
,
1,
,
1000000
#GOGOEND
5,
,
,
8010,
1,
2020,
2,
1010,
1,
2020,
2,
1,
1010,
1,
2020,
2,
10000005,
0008,
5008,
#GOGOSTART
6,
,
,
,
8,
1010,
1,
2020,
2,
1010,
1,
1010,
1,
2020,
2000000
#GOGOEND
1,
,
,
2,
,
2,
,
2,
,
20000006,
,
0008,
,
,
,
,
3,
,
0333,
3,
#GOGOSTART
2020,
2,
1010,
1,
2020,
2,
1010,
1,
1010,
1,
2020,
2,
1010,
1,
1000100
#GOGOEND
0,
#GOGOSTART
100000000000000
#GOGOEND
0,
#GOGOSTART
5,
8,
2020,
2,
1010,
1,
2020,
2,
1010,
1000000
#GOGOEND
0,
#GOGOSTART
3,
100000000000000
#GOGOEND
0,
#GOGOSTART
300000000000000
#GOGOEND
0,
#GOGOSTART
300000000000000
#GOGOEND
0,
#GOGOSTART
3,
300000000000000
#GOGOEND
0,
#GOGOSTART
300000000000000
#GOGOEND
0,
#GOGOSTART
300000000000000
#GOGOEND
0,
#GOGOSTART
3000000
#GOGOEND
0,
#BPMCHANGE 37
#SCROLL 5
3,
#END