Files
Colins_Custom_Charts/03 VOCALOID/Copycat/Copycat.tja
T
2025-12-20 15:52:49 -05:00

361 lines
3.1 KiB
Plaintext

TITLE:Copycat
SUBTITLE:--Circus-P feat. GUMI
TITLEJA:Copycat
SUBTITLEJA:Circus-P feat. GUMI
PREIMAGE:Copycat.png
BGMOVIE:Copycat.mp4
BPM:137
WAVE:Copycat.ogg
OFFSET:-0.239
DEMOSTART:65.056
MAKER:Colin
COURSE:Oni
LEVEL:8
BALLOON:
SCOREINIT:
SCOREDIFF:
NOTESDESIGNER3:Colin
#START
1000100020010020,
1000100020010020,
1000100020010020,
1000100020010020,
1022102210221022,
1022102210201022,
1022102210221022,
1022102210221022,
1022102210221022,
1022102210221022,
1022102210221022,
1022102210221022,
1022102210221022,
1022102210221022,
1022102210221022,
1022102210221022,
1022102210221022,
1022102210221022,
1022102210221022,
1022102210221022,
10112212,
11222121,
21222010,
11212010,
12112211,
21222121,
11121010,
10121020,
11201020,
11221122,
10212010,
20112010,
21212212,
12112121,
11212020,
10121001,
,
#GOGOSTART
3000201020102022,
1020101020102022,
11201010,
20132032,
3000201020102022,
1020101020102022,
11201010,
20132032,
#SCROLL 1.3
3000201020102022,
1020101020102022,
11201010,
20132032,
#SCROLL 1.6
3000201020102022,
1020101020102022,
11201010,
20132032,
#SCROLL 1.9
3000201020102022,
1020101020102022,
11201010,
20132032,
3000201020102022,
1020101020102022,
11201010,
20132032,
#SCROLL 1.4
400000200200111111200000,
200200100000200000101010200000100000200000200000,
100000100200222222100000,
100100100100201010101010200000100000200000200000,
#GOGOEND
#SCROLL 1
1000100020010020,
1000100020010020,
1000100020010020,
1000100020010020,
#END
COURSE:Hard
LEVEL:4
BALLOON:
SCOREINIT:
SCOREDIFF:
NOTESDESIGNER2:Colin
#START
1000100020010020,
1000100020010020,
1000100020010020,
1000100020010020,
1111,
0111,
0111,
1111,
0111,
0111,
00101101,
1111,
00101101,
0110,
10101201,
0111,
10101101,
0110,
1111,
1111,
1001,
10020020,
2,
1020,
1001,
20020020,
1011,
1100,
1212,
1210,
1221,
20100200,
0222,
2220,
1222,
10101001,
,
#GOGOSTART
10202022,
22201022,
22203040,
30030030,
30202022,
22201022,
22203040,
30030030,
#SCROLL 1.3
30202022,
22201022,
22203040,
30030030,
#SCROLL 1.6
30202022,
22201022,
22203040,
30030030,
#SCROLL 1.9
10202022,
22201022,
22203040,
30030030,
30202022,
22201022,
22203040,
30030030,
#SCROLL 1.4
10202022,
22201022,
22205080,
5000000000000800,
#GOGOEND
#SCROLL 1
1000100020010020,
1000100020010020,
1000100020010020,
1000100020010020,
#END
COURSE:Normal
LEVEL:2
BALLOON:
SCOREINIT:
SCOREDIFF:
NOTESDESIGNER1:Colin
#START
1110,
1110,
1110,
1110,
2020,
2020,
2020,
2020,
2020,
2020,
2020,
2020,
1,
1,
1,
1,
1020,
1,
1020,
1,
2,
2020,
2,
2020,
2,
2020,
2,
2020,
2,
2,
2,
2,
2,
2,
2,
1,
1,
#GOGOSTART
1120,
1120,
1120,
1120,
1120,
1120,
1122,
1022,
#SCROLL 1.3
1120,
1120,
1120,
1120,
#SCROLL 1.6
1120,
1120,
1120,
1120,
#SCROLL 1.9
1120,
1120,
1120,
1120,
1120,
1120,
1120,
2020,
#SCROLL 1.4
2020,
2020,
2020,
2020,
#GOGOEND
#SCROLL 1
1110,
1110,
1110,
1110,
#END
COURSE:Easy
LEVEL:1
BALLOON:
SCOREINIT:
SCOREDIFF:
NOTESDESIGNER0:Colin
#START
1010,
1,
1010,
1,
2020,
2,
2020,
2,
2020,
2,
2020,
2,
1,
,
1,
,
1,
,
1,
,
2,
2,
2,
2,
2,
2,
2,
2,
2,
2,
2,
2,
2,
2,
2,
1,
1,
#GOGOSTART
1020,
1,
1020,
1,
1020,
1,
1020,
1,
#SCROLL 1.3
1020,
1,
1020,
1,
#SCROLL 1.6
1020,
1,
1020,
1,
#SCROLL 1.9
1020,
1,
1020,
1,
1020,
1,
1020,
2,
#SCROLL 1.4
2,
2,
2,
2,
#GOGOEND
#SCROLL 1
1010,
1,
1010,
1,
#END