generated from DragonRatTiger/Custom-Charts
396 lines
4.3 KiB
Plaintext
396 lines
4.3 KiB
Plaintext
TITLE:Crab-ish
|
|
SUBTITLE:--namigroove feat. Miku Hatsune & Len Kagamine
|
|
TITLEJA:蟹っぽいな
|
|
SUBTITLEJA:なみぐる feat. 初音ミク、鏡音レン
|
|
PREIMAGE:Crabish.jpg
|
|
BGMOVIE:Crabish.mp4
|
|
WAVE:Crabish.ogg
|
|
BPM:140
|
|
OFFSET:-0.040
|
|
DEMOSTART:30.682
|
|
MAKER:Colin
|
|
|
|
COURSE:Easy
|
|
LEVEL:3
|
|
BALLOON:4,4,4,8,5
|
|
SCOREINIT:
|
|
SCOREDIFF:
|
|
NOTESDESIGNER0:Colin
|
|
|
|
#START
|
|
,
|
|
1010,
|
|
5,
|
|
8010,
|
|
1,
|
|
2020,
|
|
5,
|
|
8020,
|
|
2,
|
|
1010,
|
|
1,
|
|
1010,
|
|
1,
|
|
2020,
|
|
2,
|
|
2020,
|
|
2,
|
|
,
|
|
#GOGOSTART
|
|
1110,
|
|
2020,
|
|
1010,
|
|
1110,
|
|
2020,
|
|
1110,
|
|
2020,
|
|
2220,
|
|
3,
|
|
3,
|
|
3,
|
|
3030,
|
|
#GOGOEND
|
|
2020,
|
|
5,
|
|
8020,
|
|
2,
|
|
1010,
|
|
5,
|
|
8010,
|
|
1,
|
|
1020,
|
|
1,
|
|
1020,
|
|
1,
|
|
1020,
|
|
1,
|
|
1020,
|
|
1110,
|
|
#GOGOSTART
|
|
7,
|
|
8,
|
|
7,
|
|
8,
|
|
7,
|
|
8,
|
|
7,
|
|
,
|
|
#GOGOEND
|
|
8020,
|
|
5,
|
|
8010,
|
|
5,
|
|
8010,
|
|
1,
|
|
1110,
|
|
2220,
|
|
,
|
|
,
|
|
#GOGOSTART
|
|
4040,
|
|
4,
|
|
3330,
|
|
3330,
|
|
4040,
|
|
4,
|
|
3330,
|
|
3330,
|
|
1011,
|
|
1011,
|
|
1011,
|
|
1010,
|
|
200000002000200
|
|
#GOGOEND
|
|
0,
|
|
0070,
|
|
0000000000000008,
|
|
#END
|
|
|
|
COURSE:Normal
|
|
LEVEL:5
|
|
BALLOON:4,4,4,8,5
|
|
SCOREINIT:
|
|
SCOREDIFF:
|
|
NOTESDESIGNER1:Colin
|
|
|
|
#START
|
|
,
|
|
10001001,
|
|
5,
|
|
8010,
|
|
10110000,
|
|
20002002,
|
|
5,
|
|
8022,
|
|
2,
|
|
1110,
|
|
10011000,
|
|
1110,
|
|
10011000,
|
|
2220,
|
|
20022000,
|
|
2220,
|
|
2,
|
|
,
|
|
#GOGOSTART
|
|
1110,
|
|
20222000,
|
|
1110,
|
|
10111000,
|
|
2020,
|
|
10101110,
|
|
2020,
|
|
20222000,
|
|
3,
|
|
3,
|
|
3,
|
|
3030,
|
|
#GOGOEND
|
|
20002002,
|
|
5,
|
|
8020,
|
|
20020000,
|
|
10001001,
|
|
5,
|
|
8010,
|
|
10010000,
|
|
1120,
|
|
1010,
|
|
1120,
|
|
1010,
|
|
1120,
|
|
1010,
|
|
1122,
|
|
10111010,
|
|
#GOGOSTART
|
|
7,
|
|
8222,
|
|
7,
|
|
8222,
|
|
7,
|
|
8222,
|
|
7,
|
|
,
|
|
#GOGOEND
|
|
8020,
|
|
5,
|
|
8010,
|
|
5,
|
|
80101011,
|
|
1010,
|
|
1110,
|
|
20222020,
|
|
,
|
|
,
|
|
#GOGOSTART
|
|
4040,
|
|
40440400,
|
|
3330,
|
|
30333000,
|
|
4440,
|
|
40040000,
|
|
3330,
|
|
30333000,
|
|
1011,
|
|
10001011,
|
|
1011,
|
|
1010,
|
|
200000002000202
|
|
#GOGOEND
|
|
0,
|
|
0070,
|
|
0000000000000008,
|
|
#END
|
|
|
|
COURSE:Hard
|
|
LEVEL:5
|
|
BALLOON:4,4,4,4,4,4,4,4,4,12,12,12,12,4,4,4,4,4,4,4,4,4,10
|
|
SCOREINIT:
|
|
SCOREDIFF:
|
|
NOTESDESIGNER2:Colin
|
|
|
|
#START
|
|
,
|
|
10012000,
|
|
1001001020000000,
|
|
10012101,
|
|
10011220,
|
|
11012002,
|
|
10012022,
|
|
1001001020002000,
|
|
1001001020000000,
|
|
10201120,
|
|
1000201110102000,
|
|
10201120,
|
|
1000201110102000,
|
|
10201120,
|
|
10201121,
|
|
1002002010010020,
|
|
12101210,
|
|
5008,
|
|
#GOGOSTART
|
|
40304021,
|
|
21220200,
|
|
2000200022220020,
|
|
2020222200500080,
|
|
40304021,
|
|
21220200,
|
|
2000200022220020,
|
|
2020222200500080,
|
|
70870858,
|
|
70810508,
|
|
70870820,
|
|
7000870008000000,
|
|
#GOGOEND
|
|
10012000,
|
|
1001001020000000,
|
|
10012101,
|
|
10011220,
|
|
11012002,
|
|
10012022,
|
|
1001001020002000,
|
|
1001001020000000,
|
|
1011100020222000,
|
|
1011100010222000,
|
|
7878,
|
|
5858,
|
|
1011100020222000,
|
|
1011100010222000,
|
|
58585000,
|
|
80333300,
|
|
#GOGOSTART
|
|
7008,
|
|
7008,
|
|
20211212,
|
|
11221020,
|
|
7008,
|
|
7008,
|
|
20211021,
|
|
10211020,
|
|
#GOGOEND
|
|
1000200110102000,
|
|
11210120,
|
|
11211022,
|
|
1001005000008000,
|
|
1010202010020020,
|
|
2000202010020020,
|
|
1001001010010020,
|
|
22222222,
|
|
,
|
|
5008,
|
|
#GOGOSTART
|
|
40304021,
|
|
21220200,
|
|
2000200022220020,
|
|
2020222200500080,
|
|
40304021,
|
|
21220200,
|
|
2000200022220020,
|
|
2020222200500080,
|
|
70870858,
|
|
70810508,
|
|
70870820,
|
|
7000870008000000,
|
|
700080700080000
|
|
#GOGOEND
|
|
0,
|
|
0070,
|
|
0000000000000008,
|
|
#END
|
|
|
|
COURSE:Oni
|
|
LEVEL:8
|
|
BALLOON:20
|
|
SCOREINIT:
|
|
SCOREDIFF:
|
|
NOTESDESIGNER3:Colin
|
|
|
|
#START
|
|
0110202122212100,
|
|
2021202010110120,
|
|
2011011010112022,
|
|
1022201210201010,
|
|
1011011011212020,
|
|
1021011020210120,
|
|
2022012020210122,
|
|
1012101022021120,
|
|
1021022022121020,
|
|
100200101202100200100200,
|
|
100201200202102200100200,
|
|
100202100202100200100200,
|
|
100201200202102202100200,
|
|
100200100202100200100200,
|
|
100202100202102202100200,
|
|
1021011110212020,
|
|
2021012011222222,
|
|
100000200000200000100200000100202020100100200200,
|
|
#GOGOSTART
|
|
1010201111201020,
|
|
1012202011201020,
|
|
2011201022220120,
|
|
2020222201202120,
|
|
1120102211201010,
|
|
2010201111202122,
|
|
2011202022220120,
|
|
2020222201201210,
|
|
2222002222002020,
|
|
2222001011202220,
|
|
200200200200000000200200200200000000200000101010,
|
|
2222022221212210,
|
|
#GOGOEND
|
|
2011012020220020,
|
|
2022011020120220,
|
|
1022202011012010,
|
|
2022012021222022,
|
|
2022021010220210,
|
|
2022021020120220,
|
|
1020202120101111,
|
|
2012022022112120,
|
|
1011102010111020,
|
|
1011102010111020,
|
|
1111202211112020,
|
|
1111202211112020,
|
|
1011102010111020,
|
|
1011102010111020,
|
|
1120112011111111,
|
|
101010200200100200100100200100200100200000000000,
|
|
#GOGOSTART
|
|
1222122212221010,
|
|
1222122212221010,
|
|
1122102210221022,
|
|
1022102210221120,
|
|
1222122212221010,
|
|
1222122212221010,
|
|
1122122212221020,
|
|
100100200200100000200200100100200200101010100100,
|
|
#GOGOEND
|
|
200200101202100200100200,
|
|
100201200202102200100200,
|
|
100202100202100200100200,
|
|
100201200202102202100200,
|
|
100200100202100200100200,
|
|
100202100202102202100200,
|
|
1021011110212020,
|
|
2021012011222222,
|
|
1,
|
|
5008,
|
|
#GOGOSTART
|
|
3010201111201020,
|
|
1012202011201020,
|
|
2011201022220120,
|
|
2020222201202120,
|
|
1120102211201010,
|
|
2010201111202122,
|
|
2011202022220120,
|
|
2020222201201210,
|
|
2222002222002020,
|
|
2222001011202220,
|
|
200200200200000000200200200200000000200000101010,
|
|
2222022221212210,
|
|
222202222220211
|
|
#GOGOEND
|
|
2,
|
|
0070,
|
|
0000000000000008,
|
|
#END
|