Files
Colins_Custom_Charts/03 VOCALOID/Earths Final Confession/Earths Final Confession.tja
T
2025-12-20 15:52:49 -05:00

477 lines
4.1 KiB
Plaintext

TITLE:The Earth's Final Confession
SUBTITLE:--kemu feat. GUMI
TITLEJA:地球最後の告白を
BGMOVIE:Earths Final Confession.mp4
SUBTITLEJA:kemu feat. GUMI
PREIMAGE:Earths Final Confession.png
BPM:190
WAVE:Earths Final Confession.ogg
OFFSET:-0.398
DEMOSTART:83.450
MAKER:Colin
COURSE:Oni
LEVEL:9
BALLOON:
SCOREINIT:
SCOREDIFF:
NOTESDESIGNER3:Colin
#START
#BARLINEOFF
#SCROLL 0.5
0,
0100000000000000,
,
0001,
,
,
,
00000001,
0000000000000010000000000000000000001000000000000000000100000000,
0500,
0008,
000000100000001000000001,
0000000000000000010000000000010000000000000000000010000000000000,
0500000000000000,
0080,
,
00000000000000
#BARLINEON
#SCROLL 1
22,
#GOGOSTART
11212121,
2011102210102011,
1010221121222210,
01010101,
01201120,
1010202210102222,
12121111,
1020201120200000,
#GOGOEND
2222,
20202021,
1222,
20202121,
1222,
20202021,
1222,
20212121,
10202021,
10202121,
10202121,
1000201020102011,
1111,
10101012,
10121212,
1010101022112222,
11201122,
1010202210102022,
11201121,
1010202210102020,
11201120,
10201120,
10201120,
1010200020222022,
10201022,
1212,
1212,
1212,
1212,
10201120,
1000200010002022,
1020112010112022,
11112011,
11112111,
21112021,
12112111,
#MEASURE 8/4
20000000000000000000000011111111,
#MEASURE 4/4
2010101022111120,
0020200022111120,
0020200000002222,
#GOGOSTART
12121212,
1020102010201022,
12121212,
1020102010201022,
12121212,
1020102210201022,
1010102210102211,
2011211121112222,
1211201120221121,
2010201020102011,
2010202210222210,
0222221000100010,
0010101020001011,
100000200000100000100100200020001000200010001000,
100000000000100000100000200000001000200000100200,
1012101010102222,
1011112112111120,
0020121120112011,
21120212,
#GOGOEND
0,
,
#GOGOSTART
1010201210102012,
1011201210102012,
1010201210102012,
1010201120122222,
1020121210101210,
12121212,
12121212,
10201021202020
#GOGOEND
20,
#END
COURSE:Hard
LEVEL:7
BALLOON:
SCOREINIT:
SCOREDIFF:
NOTESDESIGNER2:Colin
#START
#BARLINEOFF
0,
0,
0,
0,
0,
0,
0,
0,
0,
0,
0,
0,
0,
0,
0,
0,
00000000000000
#BARLINEON
22,
#GOGOSTART
20212120,
20212120,
10201124,
0040004000111020,
01201120,
1000200010102220,
22222222,
22222200,
#GOGOEND
1111,
1111,
1111,
1111,
1111,
1111,
1111,
10101122,
10201120,
10201120,
10201120,
10201120,
10201120,
10201120,
10201122,
2020202020222220,
10201120,
1000200022202000,
10201120,
1000200022202000,
10201120,
1000200022202000,
10201120,
1000200022202220,
10201120,
1000200022202000,
10201120,
1000200022202000,
10201120,
1000200022202000,
1212,
11221120,
20002012,
00002021,
10120202,
11202120,
2,
2,
50000084,
0040400011100040,
04405008,
#GOGOSTART
1000102000200011,
11211202,
10120205,
0082,
10120212,
01210120,
10210120,
1000100010001011,
1110201000100020,
1000111020201000,
20120204,
04040406,
0008,
1111,
5,
8011,
33030304,
0033,
33040404,
#GOGOEND
0,
0,
#GOGOSTART
10201120,
1000200022202000,
10201120,
4444,
10201120,
1000200022202000,
22222222,
2222222
#GOGOEND
2,
#END
COURSE:Normal
LEVEL:6
BALLOON:
SCOREINIT:
SCOREDIFF:
NOTESDESIGNER1:Colin
#START
#BARLINEOFF
0,
0,
0,
0,
0,
0,
0,
0,
0,
0,
0,
0,
0,
0,
0,
0,
0,
#BARLINEON
#GOGOSTART
1110,
1110,
10101004,
04040000,
0110,
1110,
5,
08,
#GOGOEND
1,
1,
1,
1,
1,
1,
1,
11,
11,
11,
11,
11,
11,
11,
1,
2220,
11,
0222,
0202,
0222,
0202,
0222,
0202,
0022,
11,
12,
11,
0220,
11,
12,
11,
11,
20002002,
0022,
00020200,
1222,
2,
2,
50000084,
04400004,
04405008,
#GOGOSTART
10020205,
00000800,
10220205,
0082,
10020205,
00080220,
1202,
1011,
10020100,
2102,
20020204,
00040006,
0008,
1001,
5,
8011,
30030304,
0033,
30040404,
#GOGOEND
0,
0,
#GOGOSTART
1110,
1110,
1110,
4440,
1110,
1110,
22,
2
#GOGOEND
2,
#END
COURSE:Easy
LEVEL:4
BALLOON:
SCOREINIT:
SCOREDIFF:
NOTESDESIGNER0:Colin
#START
#BARLINEOFF
0,
0,
0,
0,
0,
0,
0,
0,
0,
0,
0,
0,
0,
0,
0,
0,
0,
#BARLINEON
#GOGOSTART
1,
1,
10000004,
00040000,
0110,
11,
5,
08,
#GOGOEND
1,
1,
1,
1,
1,
1,
1,
11,
1,
11,
1,
11,
1,
11,
1,
22,
11,
0220,
0202,
0220,
0202,
0220,
0202,
02,
11,
1,
11,
0220,
1,
1,
1,
11,
2,
0,
1,
1,
2,
2,
50000084,
00400004,
00405008,
#GOGOSTART
10000005,
00000800,
10000005,
08,
10000005,
00080000,
1,
1,
0100,
0,
20000004,
00040006,
0008,
1,
5,
81,
30030004,
03,
30040004,
#GOGOEND
0,
0,
#GOGOSTART
1,
1,
1,
4440,
1,
11,
22,
2
#GOGOEND
2,
#END