generated from DragonRatTiger/Custom-Charts
597 lines
6.8 KiB
Plaintext
597 lines
6.8 KiB
Plaintext
TITLE:Edamame Curry Cooking
|
|
SUBTITLE:--OSTER project feat. Zundamon & Tsumugi Kasukabe
|
|
TITLEJA:えだまめカレークッキング
|
|
SUBTITLEJA:OSTER project feat. ずんだもん、春日部つむぎ
|
|
PREIMAGE:Edamame Curry Cooking.jpg
|
|
BGMOVIE:Edamame Curry Cooking.mp4
|
|
WAVE:Edamame Curry Cooking.ogg
|
|
BPM:112
|
|
OFFSET:-2.215
|
|
DEMOSTART:73.7007
|
|
GENRE:ボーカロイド
|
|
MAKER:Colin
|
|
|
|
COURSE:Easy
|
|
LEVEL:3
|
|
SCOREINIT:
|
|
SCOREDIFF:
|
|
NOTESDESIGNER0:Colin
|
|
|
|
#START
|
|
#GOGOSTART
|
|
#SCROLL 1.6
|
|
300000000000000000000
|
|
#GOGOEND
|
|
00
|
|
#GOGOSTART
|
|
6,
|
|
,
|
|
#GOGOEND
|
|
#BPMCHANGE 150
|
|
8,
|
|
#GOGOSTART
|
|
1010,
|
|
1110,
|
|
1010,
|
|
1,
|
|
2020,
|
|
2220,
|
|
2020,
|
|
20
|
|
#GOGOEND
|
|
00,
|
|
1,
|
|
1010,
|
|
1,
|
|
1010,
|
|
1,
|
|
1010,
|
|
1,
|
|
,
|
|
2,
|
|
2020,
|
|
2,
|
|
2020,
|
|
2020,
|
|
2222,
|
|
2,
|
|
,
|
|
3333,
|
|
3333,
|
|
6008,
|
|
,
|
|
000
|
|
#BPMCHANGE 161
|
|
#SCROLL 0.931677
|
|
0,
|
|
#BPMCHANGE 150
|
|
#SCROLL 1
|
|
2,
|
|
2020,
|
|
2,
|
|
202
|
|
#BPMCHANGE 145
|
|
#SCROLL 1.03448
|
|
0,
|
|
#BPMCHANGE 150
|
|
#SCROLL 1
|
|
2,
|
|
2020,
|
|
2,
|
|
#SCROLL 1.1
|
|
5008,
|
|
#SCROLL 1.2
|
|
5080,
|
|
#SCROLL 1.3
|
|
6008,
|
|
#SCROLL 1.4
|
|
6,
|
|
#SCROLL 1.5
|
|
8,
|
|
#GOGOSTART
|
|
#SCROLL 1.6
|
|
3110,
|
|
1110,
|
|
1010,
|
|
1,
|
|
2220,
|
|
2220,
|
|
2020,
|
|
20000000000
|
|
#GOGOEND
|
|
0
|
|
#GOGOSTART
|
|
300
|
|
#GOGOEND
|
|
000
|
|
#GOGOSTART
|
|
300
|
|
#GOGOEND
|
|
000,
|
|
#GOGOSTART
|
|
3110,
|
|
1110,
|
|
1010,
|
|
1,
|
|
2220,
|
|
2220,
|
|
2020,
|
|
2020,
|
|
3,
|
|
,
|
|
3030,
|
|
300
|
|
#GOGOEND
|
|
3,
|
|
#END
|
|
|
|
COURSE:Normal
|
|
LEVEL:5
|
|
SCOREINIT:
|
|
SCOREDIFF:
|
|
NOTESDESIGNER1:Colin
|
|
|
|
#START
|
|
#GOGOSTART
|
|
#SCROLL 1.6
|
|
300000000000000000000
|
|
#GOGOEND
|
|
00
|
|
#GOGOSTART
|
|
6,
|
|
,
|
|
#GOGOEND
|
|
#BPMCHANGE 150
|
|
8,
|
|
#GOGOSTART
|
|
10101011,
|
|
1110,
|
|
1011,
|
|
1,
|
|
20202022,
|
|
2220,
|
|
2022,
|
|
20
|
|
#GOGOEND
|
|
00,
|
|
1011,
|
|
1010,
|
|
10001011,
|
|
1010,
|
|
1010,
|
|
10111000,
|
|
1010,
|
|
1,
|
|
2020,
|
|
2220,
|
|
2020,
|
|
2022,
|
|
2020,
|
|
2222,
|
|
2,
|
|
,
|
|
3333,
|
|
3333,
|
|
6008,
|
|
,
|
|
000
|
|
#BPMCHANGE 161
|
|
#SCROLL 0.931677
|
|
0,
|
|
#BPMCHANGE 150
|
|
#SCROLL 1
|
|
2002,
|
|
2020,
|
|
2002,
|
|
202
|
|
#BPMCHANGE 145
|
|
#SCROLL 1.03448
|
|
0,
|
|
#BPMCHANGE 150
|
|
#SCROLL 1
|
|
2020,
|
|
2022,
|
|
2020,
|
|
#SCROLL 1.1
|
|
5008,
|
|
#SCROLL 1.2
|
|
5080,
|
|
#SCROLL 1.3
|
|
6008,
|
|
#SCROLL 1.4
|
|
6,
|
|
#SCROLL 1.5
|
|
8,
|
|
#GOGOSTART
|
|
#SCROLL 1.6
|
|
30101011,
|
|
1110,
|
|
10001011,
|
|
1,
|
|
20202022,
|
|
2220,
|
|
2020,
|
|
20000000000
|
|
#GOGOEND
|
|
0
|
|
#GOGOSTART
|
|
300
|
|
#GOGOEND
|
|
000
|
|
#GOGOSTART
|
|
300
|
|
#GOGOEND
|
|
000,
|
|
#GOGOSTART
|
|
3110,
|
|
10111010,
|
|
1010,
|
|
1,
|
|
20202022,
|
|
2220,
|
|
2020,
|
|
2220,
|
|
3,
|
|
,
|
|
3131,
|
|
300
|
|
#GOGOEND
|
|
3,
|
|
#END
|
|
|
|
COURSE:Hard
|
|
LEVEL:5
|
|
SCOREINIT:
|
|
SCOREDIFF:
|
|
NOTESDESIGNER2:Colin
|
|
|
|
#START
|
|
#GOGOSTART
|
|
#SCROLL 1.6
|
|
300000000000000000000
|
|
#GOGOEND
|
|
00
|
|
#GOGOSTART
|
|
6,
|
|
,
|
|
#GOGOEND
|
|
#BPMCHANGE 150
|
|
8,
|
|
#GOGOSTART
|
|
12101012,
|
|
12508012,
|
|
12221212,
|
|
10122012,
|
|
10201212,
|
|
12221020,
|
|
12201212,
|
|
5080
|
|
#GOGOEND
|
|
3440,
|
|
10201120,
|
|
10200221,
|
|
10201120,
|
|
10200221,
|
|
10201120,
|
|
10200221,
|
|
10201120,
|
|
10204440,
|
|
300200102202,
|
|
002200222200,
|
|
100200102201,
|
|
1212,
|
|
1212,
|
|
1122,
|
|
3003000030030000,
|
|
3003000030030000,
|
|
33333333,
|
|
44444444,
|
|
6008,
|
|
3003030030303030,
|
|
608
|
|
#BPMCHANGE 161
|
|
#SCROLL 0.931677
|
|
0,
|
|
#BPMCHANGE 150
|
|
#SCROLL 1
|
|
2002,
|
|
2020,
|
|
2222,
|
|
508
|
|
#BPMCHANGE 145
|
|
#SCROLL 1.03448
|
|
0,
|
|
#BPMCHANGE 150
|
|
#SCROLL 1
|
|
12101210,
|
|
12101212,
|
|
10200011,
|
|
#SCROLL 1.1
|
|
5008,
|
|
#SCROLL 1.2
|
|
50008001,
|
|
#SCROLL 1.3
|
|
60000081,
|
|
#SCROLL 1.4
|
|
6,
|
|
#SCROLL 1.5
|
|
8,
|
|
#GOGOSTART
|
|
#SCROLL 1.6
|
|
300200200202000100200100,
|
|
100100100101000200100200,
|
|
10201122,
|
|
100005000000800000000000,
|
|
10201220,
|
|
100200100200100002000000,
|
|
12110111,
|
|
20010020010
|
|
#GOGOEND
|
|
0
|
|
#GOGOSTART
|
|
300
|
|
#GOGOEND
|
|
000
|
|
#GOGOSTART
|
|
300
|
|
#GOGOEND
|
|
000,
|
|
#GOGOSTART
|
|
300200200202000100200100,
|
|
100100100101000200100200,
|
|
10201122,
|
|
100005000000800000000000,
|
|
10221222,
|
|
12121020,
|
|
12102101,
|
|
21212201,
|
|
3,
|
|
11210112,
|
|
33333333,
|
|
303033
|
|
#GOGOEND
|
|
30,
|
|
#END
|
|
|
|
COURSE:Oni
|
|
LEVEL:8
|
|
BALLOON:12
|
|
SCOREINIT:
|
|
SCOREDIFF:
|
|
NOTESDESIGNER3:Colin
|
|
|
|
#START
|
|
#GOGOSTART
|
|
#SCROLL 1.6
|
|
300000000000000000404
|
|
#GOGOEND
|
|
00
|
|
#GOGOSTART
|
|
6,
|
|
0008,
|
|
#GOGOEND
|
|
#BPMCHANGE 150
|
|
400200102002200100200200,
|
|
#GOGOSTART
|
|
300200102200101101000200,
|
|
12500080,
|
|
100200100200100201002200,
|
|
100201000200200102002200,
|
|
100200100200100200101100,
|
|
102200100200100200100200,
|
|
100200201002200101100200,
|
|
7000
|
|
#GOGOEND
|
|
8440,
|
|
100100201001002100200100,
|
|
100000201101002200200100,
|
|
100100201001002100200100,
|
|
100100201001002202200100,
|
|
100100201001002100200100,
|
|
100101201101002200200100,
|
|
100100201001002100200100,
|
|
201200200100400300400000,
|
|
101202201201,
|
|
001202122202,
|
|
200012201201,
|
|
005000000802,
|
|
1212,
|
|
1122,
|
|
3003000030030000,
|
|
3003000030030000,
|
|
33333333,
|
|
44444444,
|
|
6008,
|
|
3003030030303030,
|
|
608
|
|
#BPMCHANGE 161
|
|
#SCROLL 0.931677
|
|
0,
|
|
#BPMCHANGE 150
|
|
#SCROLL 1
|
|
200200100201000200200100,
|
|
200200200202000200100200,
|
|
50008021,
|
|
500850
|
|
#BPMCHANGE 145
|
|
#SCROLL 1.03448
|
|
08,
|
|
#BPMCHANGE 150
|
|
#SCROLL 1
|
|
200100100202000100200100,
|
|
100200100202000200200200,
|
|
20500812,
|
|
#SCROLL 1.1
|
|
5008,
|
|
#SCROLL 1.2
|
|
50000081,
|
|
#SCROLL 1.3
|
|
60000081,
|
|
#SCROLL 1.4
|
|
6008,
|
|
#SCROLL 1.5
|
|
400200102002200100200200,
|
|
#GOGOSTART
|
|
#SCROLL 1.6
|
|
300102200202000100200200,
|
|
200100200102000100200200,
|
|
100201100200100100200100,
|
|
200205000000800200200200,
|
|
300000200101000200200100,
|
|
200100200200100002000200,
|
|
100202100201001200100200,
|
|
10020010020
|
|
#GOGOEND
|
|
0
|
|
#GOGOSTART
|
|
300
|
|
#GOGOEND
|
|
000
|
|
#GOGOSTART
|
|
300
|
|
#GOGOEND
|
|
000,
|
|
#GOGOSTART
|
|
300100200101000100200200,
|
|
201200200102000100200100,
|
|
22121121,
|
|
200205000000800200200200,
|
|
300000200101000200200100,
|
|
21221022,
|
|
100100200202200200100200,
|
|
100200200010100200100200,
|
|
32222222,
|
|
34440330,
|
|
33333333,
|
|
444434
|
|
#GOGOEND
|
|
30,
|
|
#END
|
|
|
|
COURSE:Edit
|
|
LEVEL:10
|
|
BALLOON:12
|
|
SCOREINIT:
|
|
SCOREDIFF:
|
|
NOTESDESIGNER4:Colin
|
|
|
|
#START
|
|
#GOGOSTART
|
|
#SCROLL 1.6
|
|
300000000000000000000000000000000000100100100100200000001000100000000000400000004000
|
|
#GOGOEND
|
|
00000000
|
|
#GOGOSTART
|
|
6000,
|
|
0008,
|
|
#GOGOEND
|
|
#BPMCHANGE 150
|
|
401200102001200100201202,
|
|
#GOGOSTART
|
|
100202102102201201001200,
|
|
100202100202101201101200,
|
|
100202102202101201001202,
|
|
100202100201202201201102,
|
|
100200101200100201101200,
|
|
102202101201101201101200,
|
|
100200101201200201101202,
|
|
7000
|
|
#GOGOEND
|
|
8440,
|
|
202201201201201202200102,
|
|
102201201102102200200101,
|
|
100100201001102201200100,
|
|
100100201001102201200100,
|
|
300100201002002100200100,
|
|
101101201101202100202102,
|
|
100100201101002201200100,
|
|
222111222111100300400000,
|
|
301202201201,
|
|
100010212121212120100020,
|
|
101222211122,
|
|
100010202220202020111111,
|
|
101201102202,
|
|
102111211200,
|
|
3003000030030000,
|
|
3003000030030000,
|
|
33333333,
|
|
400400400400400111202020,
|
|
300000000111200101101100,
|
|
#SCROLL 2
|
|
3403034030303030,
|
|
608
|
|
#BPMCHANGE 161
|
|
#SCROLL 0.931677
|
|
0,
|
|
#BPMCHANGE 150
|
|
#SCROLL 1
|
|
200200100201000200200100,
|
|
200200200202000200100200,
|
|
50008021,
|
|
500850
|
|
#BPMCHANGE 145
|
|
#SCROLL 1.03448
|
|
08,
|
|
#BPMCHANGE 150
|
|
#SCROLL 1
|
|
100202200202100100200202,
|
|
100202200202100100200202,
|
|
100202200202100102200202,
|
|
#SCROLL 1.1
|
|
100111200222202202102101,
|
|
#SCROLL 1.2
|
|
101111202010201110101101,
|
|
#SCROLL 1.3
|
|
100102100101200202102201,
|
|
#SCROLL 1.4
|
|
100102100101200100222222,
|
|
#SCROLL 1.5
|
|
201200102001200100201200,
|
|
#GOGOSTART
|
|
#SCROLL 1.6
|
|
300101200201001200200202,
|
|
100200101201001200200200,
|
|
100202101202102100101200,
|
|
102200100201100200102200,
|
|
100200100201001100202200,
|
|
100200101202102202102200,
|
|
100202100202102200100200,
|
|
10120110120
|
|
#GOGOEND
|
|
0
|
|
#GOGOSTART
|
|
#SCROLL 2.6
|
|
30
|
|
#SCROLL 1.6
|
|
0
|
|
#GOGOEND
|
|
20
|
|
#SCROLL 2.6
|
|
0
|
|
#GOGOSTART
|
|
3
|
|
#SCROLL 1.6
|
|
00
|
|
#GOGOEND
|
|
200,
|
|
#GOGOSTART
|
|
300101200201001200200202,
|
|
100200101201001200200200,
|
|
100202101202102100101200,
|
|
102200100201100200102200,
|
|
100200100201001100202200,
|
|
100200101202102202102200,
|
|
100202100202102200100200,
|
|
100202102201102222111222,
|
|
1,
|
|
300400400300000100202202,
|
|
211211211211211211222111,
|
|
20
|
|
#SCROLL 3.6
|
|
0000400400400000400000300000400000
|
|
#GOGOEND
|
|
30
|
|
#SCROLL 1.6
|
|
0000000000,
|
|
#END
|