generated from DragonRatTiger/Custom-Charts
259 lines
2.5 KiB
Plaintext
259 lines
2.5 KiB
Plaintext
TITLE:〈11
|
|
SUBTITLE:--Tanger feat. Miku Hatsune / OpenTaiko
|
|
TITLEJA:〈11
|
|
SUBTITLEJA:Tanger feat. 初音ミク 「OpenTaiko」より
|
|
PREIMAGE:Eleven.png
|
|
WAVE:Eleven.ogg
|
|
BPM:154.046
|
|
OFFSET:0
|
|
DEMOSTART:12.463
|
|
MAKER:Colin
|
|
|
|
COURSE:Easy
|
|
LEVEL:2
|
|
SCOREINIT:
|
|
SCOREDIFF:
|
|
NOTESDESIGNER0:Colin
|
|
|
|
#START
|
|
2,
|
|
2,
|
|
2,
|
|
2,
|
|
2020,
|
|
2,
|
|
2020,
|
|
2,
|
|
#GOGOSTART
|
|
1010,
|
|
1110,
|
|
1010,
|
|
1110,
|
|
2020,
|
|
2220,
|
|
2020,
|
|
2220,
|
|
1020,
|
|
1,
|
|
1020,
|
|
1,
|
|
1020,
|
|
1,
|
|
1010,
|
|
1110,
|
|
2,
|
|
2020,
|
|
2,
|
|
2020,
|
|
2,
|
|
1010,
|
|
1110,
|
|
1,
|
|
#GOGOEND
|
|
1,
|
|
1011,
|
|
1,
|
|
1010,
|
|
1110,
|
|
1010,
|
|
1110,
|
|
1010,
|
|
2,
|
|
,
|
|
2,
|
|
,
|
|
2,
|
|
,
|
|
2020,
|
|
2,
|
|
2,
|
|
2,
|
|
2,
|
|
#END
|
|
|
|
COURSE:Normal
|
|
LEVEL:3
|
|
SCOREINIT:
|
|
SCOREDIFF:
|
|
NOTESDESIGNER1:Colin
|
|
|
|
#START
|
|
2,
|
|
22000000,
|
|
2,
|
|
22000000,
|
|
2022,
|
|
2,
|
|
2022,
|
|
2,
|
|
#GOGOSTART
|
|
10001101,
|
|
1110,
|
|
10001011,
|
|
1110,
|
|
20022002,
|
|
2220,
|
|
20022000,
|
|
2220,
|
|
1120,
|
|
1010,
|
|
1120,
|
|
1010,
|
|
1020,
|
|
11001000,
|
|
1010,
|
|
10111000,
|
|
2,
|
|
2220,
|
|
2020,
|
|
22002200,
|
|
2,
|
|
1110,
|
|
11011000,
|
|
1010,
|
|
#GOGOEND
|
|
1,
|
|
1011,
|
|
11001000,
|
|
11001000,
|
|
10101110,
|
|
1010,
|
|
10111000,
|
|
1110,
|
|
2020,
|
|
0022,
|
|
2020,
|
|
0020,
|
|
2020,
|
|
0020,
|
|
2020,
|
|
2,
|
|
2020,
|
|
2,
|
|
2,
|
|
#END
|
|
|
|
COURSE:Hard
|
|
LEVEL:4
|
|
SCOREINIT:
|
|
SCOREDIFF:
|
|
NOTESDESIGNER2:Colin
|
|
|
|
#START
|
|
12210000,
|
|
11220000,
|
|
11210000,
|
|
11220000,
|
|
10212011,
|
|
1120,
|
|
10112022,
|
|
1000100020111010,
|
|
#GOGOSTART
|
|
2010101020020020,
|
|
1001001020220020,
|
|
1000100020001110,
|
|
1120,
|
|
1120,
|
|
1001001020002000,
|
|
1120,
|
|
1001001020002000,
|
|
10112000,
|
|
1001002220020020,
|
|
1120,
|
|
1001001010002000,
|
|
2120,
|
|
1001001020002000,
|
|
1000100020020020,
|
|
1000102010001110,
|
|
12112000,
|
|
1001001010201020,
|
|
1001001020002000,
|
|
1001001022202220,
|
|
1001001020001000,
|
|
1001001010202000,
|
|
1001001020002000,
|
|
1001001020002000,
|
|
#GOGOEND
|
|
10101012,
|
|
10101012,
|
|
10101012,
|
|
10101012,
|
|
10101012,
|
|
10101012,
|
|
1000222010002220,
|
|
10101111,
|
|
1020,
|
|
1120,
|
|
1020,
|
|
10102100,
|
|
1020,
|
|
1120,
|
|
1020,
|
|
10102100,
|
|
1,
|
|
2,
|
|
1,
|
|
#END
|
|
|
|
COURSE:Oni
|
|
LEVEL:9
|
|
SCOREINIT:
|
|
SCOREDIFF:
|
|
NOTESDESIGNER3:Colin
|
|
|
|
#START
|
|
20001010200010000000000010102210,
|
|
1111201000112211,
|
|
1012201000201010,
|
|
10101010200020000000202020221010,
|
|
1211202021220122,
|
|
2221202122220110,
|
|
1122122122220120,
|
|
2121201210112222,
|
|
#GOGOSTART
|
|
1022102222120120,
|
|
1121202121120120,
|
|
1222120212102120,
|
|
1222221222102020,
|
|
1221202121120020,
|
|
1221201211110110,
|
|
1022122022202120,
|
|
2021202122112100,
|
|
1020102121220010,
|
|
1011201121120120,
|
|
1112120121202120,
|
|
1221221210201020,
|
|
1211202122120020,
|
|
1121201211110121,
|
|
1022121022220120,
|
|
2022202120221111,
|
|
1002101022112202,
|
|
1011202202101211,
|
|
1020112020102102,
|
|
1211202021111212,
|
|
1111201020102101,
|
|
1011011120102102,
|
|
1022121020102020,
|
|
1120112210222122,
|
|
#GOGOEND
|
|
1020102010021022,
|
|
1020102210221020,
|
|
1020102010221020,
|
|
1222102210221020,
|
|
1020102012021020,
|
|
1022120210221020,
|
|
1222122212021022,
|
|
1122112212111111,
|
|
10112222,
|
|
11112222,
|
|
10112020,
|
|
10112000,
|
|
1020,
|
|
1120,
|
|
1020,
|
|
1020,
|
|
1,
|
|
1,
|
|
1,
|
|
#END
|