generated from DragonRatTiger/Custom-Charts
377 lines
3.4 KiB
Plaintext
377 lines
3.4 KiB
Plaintext
TITLE:FUEL
|
|
SUBTITLE:--Utsu-P feat. Miku Hatsune / Project SEKAI COLORFUL STAGE!
|
|
TITLEJA:フューエル
|
|
SUBTITLEJA:鬱P feat. 初音ミク 「プロジェクトセカイ カラフルステージ!」より
|
|
PREIMAGE:FUEL.jpg
|
|
BGMOVIE:FUEL.mp4
|
|
WAVE:FUEL.ogg
|
|
BPM:156
|
|
OFFSET:-1.358
|
|
DEMOSTART:55.204
|
|
GENRE:ボーカロイド
|
|
MAKER:Colin
|
|
|
|
COURSE:Easy
|
|
LEVEL:2
|
|
SCOREINIT:
|
|
SCOREDIFF:
|
|
NOTESDESIGNER0:Colin
|
|
|
|
#START
|
|
3,
|
|
,
|
|
3,
|
|
,
|
|
3,
|
|
,
|
|
3,
|
|
,
|
|
#GOGOSTART
|
|
3010,
|
|
1110,
|
|
1010,
|
|
1,
|
|
2020,
|
|
2220,
|
|
2020,
|
|
2,
|
|
#GOGOEND
|
|
1,
|
|
1,
|
|
1,
|
|
,
|
|
1010,
|
|
1,
|
|
1,
|
|
1,
|
|
2,
|
|
,
|
|
2020,
|
|
2,
|
|
2,
|
|
2,
|
|
2,
|
|
,
|
|
1,
|
|
1,
|
|
1,
|
|
,
|
|
#GOGOSTART
|
|
3010,
|
|
1,
|
|
5,
|
|
8,
|
|
4020,
|
|
2,
|
|
5,
|
|
8,
|
|
3010,
|
|
1110,
|
|
1010,
|
|
1,
|
|
2020,
|
|
2220,
|
|
4,
|
|
,
|
|
3030,
|
|
30
|
|
#GOGOEND
|
|
00,
|
|
0300,
|
|
0101,
|
|
1,
|
|
0101,
|
|
1,
|
|
0101,
|
|
1,
|
|
,
|
|
4,
|
|
#END
|
|
|
|
COURSE:Normal
|
|
LEVEL:3
|
|
SCOREINIT:
|
|
SCOREDIFF:
|
|
NOTESDESIGNER1:Colin
|
|
|
|
#START
|
|
30030000,
|
|
,
|
|
30030000,
|
|
,
|
|
30030000,
|
|
,
|
|
30030000,
|
|
,
|
|
#GOGOSTART
|
|
30001011,
|
|
1110,
|
|
1011,
|
|
1,
|
|
2020,
|
|
20222000,
|
|
2022,
|
|
2,
|
|
#GOGOEND
|
|
1010,
|
|
1011,
|
|
1010,
|
|
1,
|
|
1011,
|
|
1010,
|
|
1,
|
|
1,
|
|
2020,
|
|
2220,
|
|
20002022,
|
|
2020,
|
|
2020,
|
|
2220,
|
|
2020,
|
|
2220,
|
|
1,
|
|
1,
|
|
1,
|
|
,
|
|
#GOGOSTART
|
|
30001011,
|
|
1111,
|
|
5,
|
|
8,
|
|
40002022,
|
|
2222,
|
|
5,
|
|
8,
|
|
30011000,
|
|
1110,
|
|
10011011,
|
|
1110,
|
|
20002022,
|
|
2220,
|
|
4,
|
|
,
|
|
3030,
|
|
30
|
|
#GOGOEND
|
|
00,
|
|
0300,
|
|
00100110,
|
|
1010,
|
|
10100110,
|
|
1010,
|
|
10100110,
|
|
1010,
|
|
,
|
|
4,
|
|
#END
|
|
|
|
COURSE:Hard
|
|
LEVEL:5
|
|
SCOREINIT:
|
|
SCOREDIFF:
|
|
NOTESDESIGNER2:Colin
|
|
|
|
#START
|
|
33030000,
|
|
,
|
|
33030000,
|
|
,
|
|
33030000,
|
|
,
|
|
33030000,
|
|
,
|
|
#GOGOSTART
|
|
3000200110102000,
|
|
10201122,
|
|
1000200110102000,
|
|
10201122,
|
|
1000200110102000,
|
|
10201122,
|
|
1000200110102000,
|
|
3003003003003030,
|
|
#GOGOEND
|
|
30200120,
|
|
10200120,
|
|
10200120,
|
|
10200120,
|
|
1000200200102000,
|
|
1000200200102000,
|
|
1000200200102000,
|
|
1000200010102220,
|
|
1001001020001000,
|
|
10201212,
|
|
1001001020001000,
|
|
10201212,
|
|
1121,
|
|
10112020,
|
|
1001001020001000,
|
|
2121,
|
|
2202,
|
|
00222220,
|
|
0202,
|
|
33030000,
|
|
#GOGOSTART
|
|
30201120,
|
|
10210121,
|
|
01201120,
|
|
10201122,
|
|
10201120,
|
|
10210121,
|
|
01201120,
|
|
10201120,
|
|
10210121,
|
|
01222220,
|
|
10210121,
|
|
01222220,
|
|
10210121,
|
|
01222020,
|
|
30200120,
|
|
10201122,
|
|
10210121,
|
|
0111
|
|
#GOGOEND
|
|
0000,
|
|
0300,
|
|
10101110,
|
|
10101101,
|
|
1111,
|
|
10111010,
|
|
10111110,
|
|
1111,
|
|
,
|
|
4,
|
|
#END
|
|
|
|
COURSE:Oni
|
|
LEVEL:8
|
|
SCOREINIT:
|
|
SCOREDIFF:
|
|
NOTESDESIGNER3:Colin
|
|
|
|
#START
|
|
4040104000212020,
|
|
0022102211202120,
|
|
4040104000221020,
|
|
0022102010112020,
|
|
4040104010221020,
|
|
1022102010201220,
|
|
4040104000112040,
|
|
,
|
|
#GOGOSTART
|
|
3010201210112012,
|
|
1010201210112112,
|
|
1010201210112012,
|
|
1010201210112112,
|
|
1010202120120210,
|
|
1011210120221212,
|
|
1010202120120210,
|
|
1101102121202222,
|
|
#GOGOEND
|
|
1010202202102100,
|
|
1010202201102100,
|
|
1010202202102100,
|
|
1010202201102100,
|
|
1011201201102100,
|
|
1010201201102101,
|
|
1010201202102101,
|
|
1011201201102222,
|
|
1202201120120120,
|
|
1022102120111020,
|
|
1202202120121020,
|
|
1020102120022020,
|
|
1202102021012020,
|
|
1012102120112222,
|
|
1101201020211020,
|
|
1012122020112020,
|
|
1001201202012100,
|
|
1001200201002122,
|
|
1001201202012111,
|
|
2040112000000000,
|
|
#GOGOSTART
|
|
3010
|
|
#SCROLL 1.5
|
|
4
|
|
#SCROLL 1
|
|
0120110
|
|
#SCROLL 1.5
|
|
4
|
|
#SCROLL 1
|
|
012,
|
|
1010201201102101,
|
|
1010201212102102,
|
|
1010201202102222,
|
|
1010
|
|
#SCROLL 1.5
|
|
4
|
|
#SCROLL 1
|
|
0121010
|
|
#SCROLL 1.5
|
|
4
|
|
#SCROLL 1
|
|
022,
|
|
1010201202102112,
|
|
1011201201102202,
|
|
1010201210221111,
|
|
1010202202102102,
|
|
1011201201102122,
|
|
1010202202102102,
|
|
1011201201102122,
|
|
1010202202102102,
|
|
1011201201102122,
|
|
1010202202102102,
|
|
1011201201102120,
|
|
32323232,
|
|
3333
|
|
#GOGOEND
|
|
0000,
|
|
0000
|
|
#SCROLL 1.5
|
|
3
|
|
#SCROLL 1
|
|
0000000
|
|
#SCROLL 1.5
|
|
3
|
|
#SCROLL 1
|
|
000,
|
|
0020
|
|
#SCROLL 1.5
|
|
3
|
|
#SCROLL 1
|
|
02020
|
|
#SCROLL 1.5
|
|
3
|
|
#SCROLL 1
|
|
02000,
|
|
#SCROLL 1.5
|
|
3
|
|
#SCROLL 1
|
|
000200000002000,
|
|
0020
|
|
#SCROLL 1.5
|
|
3
|
|
#SCROLL 1
|
|
02020
|
|
#SCROLL 1.5
|
|
3
|
|
#SCROLL 1
|
|
02000,
|
|
#SCROLL 1.5
|
|
3
|
|
#SCROLL 1
|
|
000200000002000,
|
|
0020
|
|
#SCROLL 1.5
|
|
3
|
|
#SCROLL 1
|
|
02020
|
|
#SCROLL 1.5
|
|
3
|
|
#SCROLL 1
|
|
02000,
|
|
#SCROLL 1.5
|
|
3
|
|
#SCROLL 1
|
|
000200000002000,
|
|
,
|
|
4,
|
|
#END |