Files
Colins_Custom_Charts/03 VOCALOID/FUTURE EVE/FUTURE EVE.tja
T
2025-12-20 15:52:49 -05:00

867 lines
8.3 KiB
Plaintext

TITLE:FUTURE EVE
SUBTITLE:--sasakure.UK feat. Miku Hatsune
TITLEJA:フューチャー・イヴ
SUBTITLEJA:sasakure.UK feat. 初音ミク
PREIMAGE:FUTURE EVE.png
BPM:190
OFFSET:-0.516
DEMOSTART:166.199
WAVE:FUTURE EVE.ogg
MAKER:Colin
COURSE:Easy
LEVEL:4
SCOREINIT:
SCOREDIFF:
NOTESDESIGNER0:Colin
#START
#MEASURE 2/4
,
#MEASURE 4/4
2,
2,
2,
2,
2,
2,
#MEASURE 1/4
#BARLINEOFF
5,
#MEASURE 4/4
#BARLINEON
0,
0000008
#GOGOSTART
1,
0010,
10000001,
0010,
10000001,
0010,
10000001,
0000100
#GOGOEND
0,
00000002,
00000002,
00000002,
00000002,
00000002,
00000002,
00000005,
0080,
00000001,
0110,
00000001,
00010101,
00010002,
00020002,
00020005,
,
8,
#MEASURE 3/4
2,
2,
2,
2,
2,
2,
2,
2,
3,
3,
3,
3,
3,
3,
3,
#MEASURE 4/4
6,
,
8000000
#GOGOSTART
1,
00010001,
00000001,
00010001,
00000001,
00010001,
00000001,
00010001,
00000001,
00000001,
00000001,
00000001,
00000002,
00000002,
00000006,
,
0008,
0010,
10000002,
0020,
20000002,
0020,
20000002,
00002002,
0000000
#GOGOEND
1,
,
00000001,
00000001,
00000002,
00000002,
00000005,
00000008,
00000001,
0010,
1,
10000001,
00000001,
00000001,
00000005,
,
,
00000008,
0000000
#GOGOSTART
2,
00002002,
00000002,
00002002,
00000001,
00001001,
00000001,
00001001,
00000005,
00080005,
00080005,
00000008,
01000002,
00000002,
00000005,
,
0000008
#GOGOEND
0,
,
#MEASURE 9/8
0,
#MEASURE 5/4
1,
1,
10010,
1,
10010,
01000,
10010,
#MEASURE 3/4
3,
3,
3,
3,
6
#BARLINEOFF
00000,
,
,
,
#MEASURE 4/4
#BARLINEON
80000002,
00000002,
00000002,
00000002,
00000002,
00000002,
00000002,
00000005,
,
8000000
#GOGOSTART
2,
00000002,
00000002,
00020002,
00000001,
00001001,
00000001,
00000001,
00000005,
00080005,
00080005,
00000008,
01000002,
00000002,
00000005,
,
0008,
01001001,
00000001,
0010,
10000001,
0010,
10000001,
0010,
10000002,
0020,
20000002,
0020,
20000001,
00000001,
0006,
,
0000000
#GOGOEND
0,
,
,
,
,
0000000000000008,
#END
COURSE:Normal
LEVEL:5
SCOREINIT:
SCOREDIFF:
NOTESDESIGNER1:Colin
#START
#MEASURE 2/4
,
#MEASURE 4/4
20000200,
20000200,
20000200,
20000200,
2020,
2,
#MEASURE 1/4
#BARLINEOFF
5,
#MEASURE 4/4
#BARLINEON
0,
0000008
#GOGOSTART
1,
0110,
10000001,
0110,
10000001,
0110,
10000001,
0010100
#GOGOEND
0,
00000002,
00020002,
00000002,
00020002,
00000002,
00020002,
00000005,
0080,
00000001,
00101001,
00000001,
00010101,
00010002,
02020202,
00020005,
,
8,
#MEASURE 3/4
200200,
2,
200200,
2,
200200,
2,
200200,
2,
300300,
3,
300300,
3,
300300,
3,
300300,
#MEASURE 4/4
6,
,
8000000
#GOGOSTART
1,
00010101,
00001001,
00010101,
00001001,
00010101,
00010001,
01010001,
00010101,
00010101,
00010001,
00010101,
00010102,
00020202,
00020006,
,
0008,
0011,
10002002,
0022,
20002002,
0022,
20000002,
00202002,
0000000
#GOGOEND
1,
,
00000001,
00010001,
00000002,
00020002,
00000205,
00000008,
00000001,
0010,
1,
10001001,
00000001,
00010001,
00000005,
,
,
00000008,
0000000
#GOGOSTART
2,
00002002,
00020202,
00102002,
00010101,
00001001,
00010101,
00001001,
00001005,
00080005,
00080005,
00000008,
01000002,
00002002,
00020005,
,
0000008
#GOGOEND
0,
,
#MEASURE 9/8
0,
#MEASURE 5/4
10101,
10100,
10110,
10111,
1001001001,
01010,
10010,
#MEASURE 3/4
300100,
300100,
300100,
300100,
6
#BARLINEOFF
00000,
,
,
,
#MEASURE 4/4
#BARLINEON
80000002,
00000002,
00000002,
00000002,
00000002,
00000002,
00000002,
00000005,
,
8000000
#GOGOSTART
1,
00001002,
00001002,
00020202,
00010101,
00001001,
00010101,
00001001,
00010005,
00080005,
00080005,
00000008,
01001002,
00001002,
00001005,
,
0008,
01001001,
00001001,
0011,
10001001,
0011,
10001001,
0011,
10000002,
0220,
20002002,
0022,
20001001,
00010001,
00010060,
,
0000000
#GOGOEND
0,
,
,
,
,
0000000000000008,
#END
COURSE:Hard
LEVEL:6
SCOREINIT:
SCOREDIFF:
NOTESDESIGNER2:Colin
#START
#MEASURE 2/4
2122,
#MEASURE 4/4
10211202,
10112120,
20112001,
10002011,
12011020,
11011010,
#MEASURE 1/4
#BARLINEOFF
6,
#MEASURE 4/4
#BARLINEON
0,
0000008
#GOGOSTART
3,
01201020,
50000008,
01201020,
50000008,
01201021,
00201121,
0120102
#GOGOEND
1,
00000002,
02222202,
02220002,
02222202,
02220002,
02020202,
02020225,
00000008,
00444402,
01101012,
02220001,
01110201,
01110001,
02010221,
01010115,
,
8,
#MEASURE 3/4
202220,
220,
202220,
220,
202220,
220,
202220,
220,
5,
008,
5,
008,
5,
008,
6,
#MEASURE 4/4
0,
,
8002122
#GOGOSTART
1,
02112021,
01121202,
01120011,
00020112,
02110201,
10111104,
03000403,
00011112,
01011112,
01012222,
01101121,
02012221,
01222202,
02010123,
04040444,
06000008,
00201120,
10201121,
01201120,
10201121,
01201120,
10201121,
01201021,
00222010200010
#GOGOEND
10,
00111110,
01111010,
01111101,
01110001,
01010101,
01010115,
00000008,
00000001,
02121102,
02220002,
01211201,
02220001,
02020202,
02020222,
01111150,
,
,
8002122
#GOGOSTART
1,
02112021,
01121202,
01120011,
00020112,
02110201,
10111104,
03000403,
00010112,
01011112,
01012222,
01101121,
02012221,
01222202,
02010123,
04040444,
0600000
#GOGOEND
8,
,
#MEASURE 9/8
0,
#MEASURE 5/4
22222,
22222,
22222,
22222,
2022222022,
2022222220,
02222,
#MEASURE 3/4
300300,
300300,
300300,
333,
6
#BARLINEOFF
00000,
,
,
,
#MEASURE 4/4
#BARLINEON
80000002,
00000002,
00000002,
00000002,
00000002,
00000002,
00000002,
00000005,
,
8002122
#GOGOSTART
1,
02112021,
01121202,
01120011,
00020112,
02110201,
10111104,
03000403,
00011112,
01011112,
01012222,
01101121,
02012221,
01222202,
02010123,
04040444,
06000008,
01201121,
02101123,
03040444,
06000008,
01201121,
01201023,
03030333,
06000008,
01201120,
10200043,
03030333,
06000008,
02210221,
02210043,
03030333,
0600000
#GOGOEND
0,
,
,
,
,
0000000000000008,
#END
COURSE:Oni
LEVEL:10
BALLOON:2022
SCOREINIT:
SCOREDIFF:
NOTESDESIGNER3:Colin
#START
#MEASURE 2/4
2122,
#MEASURE 4/4
1111111111201010,
1111111111202010,
2111111111201010,
1111111111201010,
1010202020202022,
1121221121111110,
#MEASURE 1/4
#BARLINEOFF
4,
#MEASURE 4/4
#BARLINEON
3004003004003004,
00300400404000
#GOGOSTART
30,
0010201212102012,
1101201211012030,
0030201212102012,
1101201211012030,
0030201212102012,
1101201211012030,
00302011222220
#GOGOEND
10,
22121121,
01121212,
02210121,
01111102,
02211201,
12011201,
12020221,
00000001,
00434401,
01211111,
02111121,
01211201,
01121201,
02111211,
02110121,
0010201020221120,
3003003021112111,
#MEASURE 3/4
202020201110,
222111,
201120201020,
112011222222,
201020201110,
222111,
212112,
221020221120,
302220302220,
302220302220,
302220302220,
302220302220,
302220302220,
302220302220,
122212221120,
#MEASURE 4/4
303030303030,
121212111111,
1002122
#GOGOSTART
3,
1110201110112010,
2211201020120110,
2210201211102012,
1010201122222210,
2210201211012012,
1011201120121010,
2210201211102011,
2211222211111120,
2210201210102011,
1010201020121020,
1010201110102011,
1010201120222210,
0030401211102012,
1210201120121030,
0030201211102010,
0022122212111120,
0010201210112010,
2210201211102030,
0030201211012011,
0210201110102030,
0030201210112012,
1110201110102030,
0030201110102030,
10222211222222
#GOGOEND
10,
01222202,
02210024,
0022221022221022,
2210222210101010,
0020101010221010,
1020002220202010,
01211221,
0010201011222210,
1011201020210120,
1022120210221020,
0011202010210120,
1022112010201120,
1011201020210120,
1022112010221020,
1022101020221020,
301212111211,
112222111030,
0002122
#GOGOSTART
3,
1110201110112010,
2211201020120110,
2210201211102012,
1010201122222210,
2210201211012012,
1011201120121010,
2210201211102011,
2211222211111120,
2210201210102011,
1010201020121020,
1010201110102011,
1010201120222210,
0030401211102012,
1210201120121030,
0030201211102010,
00221222121111
#GOGOEND
20,
0030040030040030,
#MEASURE 9/8
040030040040400000,
#MEASURE 5/4
10102020202011102220,
10222020202011102220,
10222020201011202220,
10222020202011222222,
10222210122212221222,
10222210122212221222,
10122210122212221222,
#MEASURE 3/4
111110112222,
120111222222,
122222211111,
222122122,
1
#BARLINEOFF
00,
001111200100,
220010000000,
,
#MEASURE 4/4
#BARLINEON
00022212,
02112122,
02222202,
01110110,
00021121,
02111102,
01211222,
01000102,
05000000,
8002122
#GOGOSTART
3,
1110201110112010,
2211201020120110,
2210201211102012,
1010201122222210,
2210201211012012,
1011201120121010,
2210201211102011,
2211222211111120,
2210201210102011,
1010201020121020,
1010201110102011,
1010201120222210,
1010201211102012,
1210201120121030,
0030201211102010,
2022122210112210,
1020112210112210,
1122101010112010,
0010201211102022,
1010102210102010,
0010201120201120,
2022111120221110,
1020202220102010,
0022221122221112,
0010201211102222,
2211212211111120,
1122221111112222,
1111101011111120,
1022221022221010,
1022221022221010,
1021021021021020,
10222222111110
#GOGOEND
70,
,
,
,
,
0000000000000008,
#END