Files
Colins_Custom_Charts/03 VOCALOID/Fragile/Fragile.tja
T
2025-12-20 15:52:49 -05:00

336 lines
3.5 KiB
Plaintext

TITLE:Fragile
SUBTITLE:--nulut feat. GUMI
TITLEJA:フラジール
SUBTITLEJA:ぬゆり feat. GUMI
PREIMAGE:Fragile.png
BGMOVIE:Fragile.mp4
BPM:127
OFFSET:-0.023
DEMOSTART:74.904
WAVE:Fragile.ogg
MAKER:Colin
COURSE:Oni
LEVEL:8
BALLOON:
SCOREINIT:
SCOREDIFF:
NOTESDESIGNER3:Colin
#START
2010201010020201,
0010201021020020,
1010201021020201,
0010201021020020,
1010201021020201,
0010201021020020,
1010201021020202,
01213000,
#GOGOSTART
1021020111120211,
2121020201112211,
1021020111120211,
2112020211212211,
1021020111120211,
2121020210212211,
1021020111120211,
2121020211212211,
#GOGOEND
1020101202102022,
1010201101102022,
1020202101202022,
1020112210202010,
4020102101202022,
1010201101201120,
1020102101201022,
1020202210202022,
1020201202102022,
1011201201201120,
1020102210112022,
1010202210112020,
1010202101202022,
1010201202102010,
2010201101201022,
1011202210102022,
1020101101202022,
1010112101202022,
1010201101102120,
1022102210102022,
1010201101102122,
1010202101202020,
3020203020203022,
30000222,
#GOGOSTART
4011202211202011,
2011212100121022,
1010122101201022,
1020221021021020,
2011202211202022,
1011211202102022,
1011220211201022,
1020221121021022,
2011202211202022,
1011211202101022,
1011220101201022,
1020221121012020,
2011202211202022,
1011211200221022,
1010201020102022,
#GOGOEND
1,
#GOGOSTART
1021020111120211,
2121020201112211,
1021020111120211,
2112020211212211,
1021020111120211,
2121020210212211,
1021020111120211,
#GOGOEND
20101010202010201010201020112010,
#END
COURSE:Hard
LEVEL:4
BALLOON:
SCOREINIT:
SCOREDIFF:
NOTESDESIGNER2:Colin
#START
2020200020020202,
2020200020020202,
2020200020020202,
2020200020020202,
2020200020020202,
2020200020020202,
2020200020020202,
2020200020020202,
#GOGOSTART
1000201110102000,
1010201110102000,
10201120,
1000200011102000,
1010201110102000,
1010201110102000,
11201020,
1010201110102000,
#GOGOEND
10201120,
10201120,
1000200011102000,
10201120,
10201120,
10201120,
1000200011102000,
10201120,
1020200020002011,
11202120,
1020200020002011,
11202120,
1020200020002011,
11202120,
1020200020002011,
11202121,
1010101101102000,
2000202202022000,
1010101101102000,
22222022,
1010101101102000,
2020202202202000,
32232230,
,
#GOGOSTART
32103132,
2020220200101010,
1010110100101020,
2022002010101010,
32103132,
2020220200101010,
1010110100101020,
2022002010101010,
32103132,
2020220200101010,
1010110100101020,
2022002010101010,
32103132,
2020220200101010,
50850082,
#GOGOEND
4,
#GOGOSTART
1000201110102000,
1010201110102000,
10201120,
1000200011102000,
1010201110102000,
1010201110102000,
11201020,
#GOGOEND
1010201110102040,
#END
COURSE:Normal
LEVEL:2
BALLOON:
SCOREINIT:
SCOREDIFF:
NOTESDESIGNER1:Colin
#START
1010,
1,
1010,
1,
1010,
1,
1010,
1,
#GOGOSTART
20002220,
2020,
20002220,
2020,
20002220,
2020,
20002220,
2020,
#GOGOEND
1010,
1010,
1010,
1110,
1010,
1010,
1010,
1111,
1010,
2,
1010,
2,
1110,
2010,
1110,
2010,
1110,
11101000,
1110,
11101000,
1010,
1110,
30030030,
4,
#GOGOSTART
41404010,
11101000,
11101110,
10111000,
41404110,
11101010,
1111,
11101010,
41404110,
10111000,
1110,
1110,
41404010,
10101011,
1101,
#GOGOEND
3,
#GOGOSTART
1210,
11102000,
10201110,
11102000,
1210,
11102000,
1210,
#GOGOEND
11101010,
#END
COURSE:Easy
LEVEL:1
BALLOON:
SCOREINIT:
SCOREDIFF:
NOTESDESIGNER0:Colin
#START
1,
1,
1,
1,
1,
1,
1,
1,
#GOGOSTART
2020,
2,
2020,
2,
2020,
2,
2020,
2,
#GOGOEND
1,
1,
1,
1,
1,
1,
1,
1010,
1,
2,
1,
2,
1,
2,
1,
2,
1,
1010,
1,
1010,
1,
1010,
30030030,
4,
#GOGOSTART
4440,
1010,
1110,
1110,
4440,
1010,
1,
1110,
4440,
1110,
1010,
1,
4440,
1010,
1,
#GOGOEND
3,
#GOGOSTART
1010,
1,
1010,
1,
1010,
1,
1010,
#GOGOEND
1,
#END