generated from DragonRatTiger/Custom-Charts
424 lines
4.4 KiB
Plaintext
424 lines
4.4 KiB
Plaintext
TITLE:Heat abnormal
|
|
SUBTITLE:--iyowa feat. Rei Adachi
|
|
TITLEJA:熱異常
|
|
SUBTITLEJA:いよわ feat. 足立レイ
|
|
PREIMAGE:Heat abnormal.png
|
|
BGMOVIE:Heat abnormal.mp4
|
|
WAVE:Heat abnormal.ogg
|
|
BPM:183
|
|
OFFSET:-0.039
|
|
DEMOSTART:66.268
|
|
MAKER:Colin
|
|
|
|
COURSE:Easy
|
|
LEVEL:4
|
|
SCOREINIT:
|
|
SCOREDIFF:
|
|
NOTESDESIGNER0:Colin
|
|
|
|
#START
|
|
1010,
|
|
1,
|
|
1010,
|
|
1,
|
|
2020,
|
|
2,
|
|
2020,
|
|
2,
|
|
1010,
|
|
1,
|
|
1010,
|
|
1,
|
|
2020,
|
|
2,
|
|
2020,
|
|
#MEASURE 6/4
|
|
2,
|
|
#MEASURE 4/4
|
|
1010,
|
|
1110,
|
|
1010,
|
|
1110,
|
|
1010,
|
|
1110,
|
|
1010,
|
|
1,
|
|
2020,
|
|
2220,
|
|
2020,
|
|
2220,
|
|
50850850,
|
|
85085085,
|
|
08508500,
|
|
8220,
|
|
1,
|
|
1010,
|
|
1110,
|
|
1010,
|
|
1110,
|
|
50850850,
|
|
85085085,
|
|
08508500,
|
|
8,
|
|
2020,
|
|
2220,
|
|
2020,
|
|
2220,
|
|
50850850,
|
|
85085085,
|
|
08508500,
|
|
8,
|
|
1,
|
|
#GOGOSTART
|
|
3330,
|
|
3330,
|
|
3330,
|
|
3030,
|
|
3033,
|
|
3030,
|
|
3030,
|
|
3,
|
|
2020,
|
|
2220,
|
|
2020,
|
|
2220,
|
|
2020,
|
|
2022,
|
|
2020,
|
|
2,
|
|
1110,
|
|
1011,
|
|
1010,
|
|
1110,
|
|
1010,
|
|
1110,
|
|
1010,
|
|
1110,
|
|
2020,
|
|
2220,
|
|
2020,
|
|
2220,
|
|
2222,
|
|
2222,
|
|
2222,
|
|
2222,
|
|
#GOGOEND
|
|
1,
|
|
,
|
|
,
|
|
,
|
|
1010,
|
|
1,
|
|
1010,
|
|
1,
|
|
#END
|
|
|
|
COURSE:Normal
|
|
LEVEL:5
|
|
SCOREINIT:
|
|
SCOREDIFF:
|
|
NOTESDESIGNER1:Colin
|
|
|
|
#START
|
|
1010,
|
|
10111000,
|
|
1010,
|
|
1110,
|
|
2020,
|
|
20222020,
|
|
2020,
|
|
2,
|
|
1110,
|
|
10001011,
|
|
1010,
|
|
1,
|
|
2020,
|
|
2,
|
|
20002022,
|
|
#MEASURE 6/4
|
|
2,
|
|
#MEASURE 4/4
|
|
10111010,
|
|
10101011,
|
|
1110,
|
|
10111010,
|
|
1010,
|
|
10111010,
|
|
10001011,
|
|
1010,
|
|
20002022,
|
|
20202022,
|
|
2020,
|
|
20202022,
|
|
20250850,
|
|
85085085,
|
|
08508500,
|
|
8220,
|
|
1,
|
|
10101011,
|
|
1110,
|
|
10001011,
|
|
1110,
|
|
50850850,
|
|
85085085,
|
|
08508500,
|
|
8,
|
|
20222020,
|
|
20202022,
|
|
2020,
|
|
20222020,
|
|
50850850,
|
|
85085085,
|
|
08508500,
|
|
8,
|
|
1,
|
|
#GOGOSTART
|
|
3330,
|
|
3330,
|
|
3330,
|
|
3030,
|
|
3033,
|
|
3030,
|
|
3030,
|
|
3,
|
|
20002022,
|
|
2220,
|
|
20002022,
|
|
2220,
|
|
20002022,
|
|
2222,
|
|
2020,
|
|
2020,
|
|
10101011,
|
|
1111,
|
|
1010,
|
|
10111010,
|
|
1010,
|
|
10111010,
|
|
1010,
|
|
10101011,
|
|
20002022,
|
|
2220,
|
|
20002022,
|
|
2220,
|
|
20222020,
|
|
20222020,
|
|
20222020,
|
|
20222020,
|
|
#GOGOEND
|
|
1,
|
|
,
|
|
,
|
|
,
|
|
1010,
|
|
1,
|
|
1010,
|
|
1,
|
|
#END
|
|
|
|
COURSE:Hard
|
|
LEVEL:8
|
|
SCOREINIT:
|
|
SCOREDIFF:
|
|
NOTESDESIGNER2:Colin
|
|
|
|
#START
|
|
10101011,
|
|
10101011,
|
|
10101011,
|
|
10101011,
|
|
10101011,
|
|
10101011,
|
|
10101011,
|
|
10101011,
|
|
10101011,
|
|
10101011,
|
|
10101011,
|
|
10101011,
|
|
10101011,
|
|
10101011,
|
|
10101011,
|
|
#MEASURE 6/4
|
|
101010110001,
|
|
#MEASURE 4/4
|
|
10201120,
|
|
10201122,
|
|
10201122,
|
|
10201122,
|
|
1011101010101011,
|
|
1011101010101011,
|
|
1011101010101011,
|
|
1000202020010000,
|
|
10201120,
|
|
10201122,
|
|
10201122,
|
|
10201122,
|
|
2022202020202022,
|
|
2022202020202022,
|
|
2022202020202022,
|
|
2000202020010010,
|
|
1,
|
|
30201122,
|
|
1000200010101011,
|
|
10201122,
|
|
10201122,
|
|
1011101010101011,
|
|
1011101010101011,
|
|
1011101010101011,
|
|
1000202020010000,
|
|
1002202010201011,
|
|
10112222,
|
|
20112211,
|
|
2020101020202022,
|
|
2022202020202022,
|
|
2022202020202022,
|
|
2022202020202022,
|
|
2000202020010010,
|
|
1,
|
|
#GOGOSTART
|
|
3444,
|
|
3443,
|
|
3444,
|
|
3344,
|
|
3444,
|
|
3444,
|
|
3444,
|
|
3444,
|
|
32101210,
|
|
12101210,
|
|
12101210,
|
|
12101210,
|
|
12101020,
|
|
11201121,
|
|
10201120,
|
|
1010202202202020,
|
|
1011101110101011,
|
|
1011101010101111,
|
|
1011101010111011,
|
|
1000222020202020,
|
|
1022202220202022,
|
|
2022202020202222,
|
|
2022202020222022,
|
|
2000222020202020,
|
|
1011101110101011,
|
|
1011101010101111,
|
|
1011101010111011,
|
|
1000222020202020,
|
|
1011101110101011,
|
|
1011101010101111,
|
|
1011101010111011,
|
|
1000222020202020,
|
|
#GOGOEND
|
|
10101011,
|
|
10101011,
|
|
10101011,
|
|
10101011,
|
|
10101011,
|
|
10101011,
|
|
10101011,
|
|
1111,
|
|
#END
|
|
|
|
COURSE:Oni
|
|
LEVEL:10
|
|
SCOREINIT:
|
|
SCOREDIFF:
|
|
NOTESDESIGNER3:Colin
|
|
|
|
#START
|
|
11202021,
|
|
10201222,
|
|
10121011,
|
|
100000100220100100200100,
|
|
10121211,
|
|
20202122,
|
|
11121121,
|
|
12112122,
|
|
10101021,
|
|
11102212,
|
|
10121011,
|
|
100000100220100100200100,
|
|
1000202020221020,
|
|
100100000000100000200000100000002000100000200000,
|
|
12121211,
|
|
#MEASURE 6/4
|
|
121211120003,
|
|
#MEASURE 4/4
|
|
3000202212201012,
|
|
1022201010222022,
|
|
1020102110201211,
|
|
1021212022221212,
|
|
2010101121101121,
|
|
1011211011211011,
|
|
2110112110112110,
|
|
1011212220110110,
|
|
3000102112202112,
|
|
1020102122201122,
|
|
2020202121112012,
|
|
2020212011222022,
|
|
1010111122111221,
|
|
1111221112211111,
|
|
2211122111112211,
|
|
1221222220020020,
|
|
1,
|
|
3000101120202211,
|
|
2012221022111012,
|
|
1010121020201212,
|
|
2022201211112011,
|
|
2220102221102221,
|
|
1022211022211022,
|
|
2110222110222110,
|
|
2221102220120110,
|
|
3011202010202121,
|
|
1022111010202022,
|
|
2011211120211020,
|
|
2211201020122021,
|
|
2001201221201221,
|
|
2012212012212012,
|
|
2120122120122120,
|
|
1221222120020020,
|
|
1,
|
|
#GOGOSTART
|
|
3010201120102011,
|
|
1010201120102011,
|
|
1010201120102011,
|
|
1010201120102020,
|
|
3010201120102011,
|
|
1010221120102011,
|
|
1010201020112020,
|
|
1010201120102020,
|
|
3020112010201120,
|
|
1020112010201120,
|
|
1022102010221020,
|
|
1020112012021020,
|
|
1020112010201120,
|
|
1020112010201022,
|
|
1020102011201020,
|
|
1022201121112222,
|
|
1000211220202222,
|
|
1222202120212111,
|
|
1020101222201110,
|
|
1022201210211022,
|
|
1020102120201021,
|
|
1021202010221021,
|
|
2020102120212020,
|
|
1021221212112020,
|
|
3020102112202112,
|
|
1020102122201122,
|
|
2020202121112012,
|
|
2020212011222022,
|
|
1010111122111221,
|
|
1111221112211111,
|
|
2211122111112211,
|
|
1221222220020020,
|
|
#GOGOEND
|
|
10101011,
|
|
10101011,
|
|
10101011,
|
|
10101011,
|
|
10101011,
|
|
10101011,
|
|
10101011,
|
|
1111,
|
|
#END
|