Files
Colins_Custom_Charts/03 VOCALOID/Human-Like/Human-Like.tja
T
2025-12-20 15:52:49 -05:00

272 lines
2.9 KiB
Plaintext

TITLE:Human-Like
SUBTITLE:--Kashii Moimi feat. KAITO
TITLEJA:Human-Like
SUBTITLEJA:香椎モイミ feat. KAITO
PREIMAGE:Human-Like.png
BGMOVIE:Human-Like.mp4
WAVE:Human-Like.ogg
BPM:120
OFFSET:-1.535
DEMOSTART:53.785
MAKER:Colin
COURSE:Easy
LEVEL:1
SCOREINIT:
SCOREDIFF:
NOTESDESIGNER0:Colin
#START
2,
2,
2,
2,
#GOGOSTART
1010,
1110,
1010,
1110,
#GOGOEND
2,
2020,
2,
2,
2020,
2,
2020,
2,
,
1011,
1,
1011,
1,
1011,
1010,
1010,
1,
,
#GOGOSTART
2020,
2220,
2020,
2220,
1010,
1110,
1010,
2220,
1010,
1,
2020,
2,
2220,
1,
1010,
1,
#GOGOEND
2,
,
1010,
1,
2020,
2,
2020,
2,
1010,
1011,
#END
COURSE:Normal
LEVEL:4
SCOREINIT:
SCOREDIFF:
NOTESDESIGNER1:Colin
#START
2,
2,
2,
2,
#GOGOSTART
1010,
10111000,
1110,
10111000,
#GOGOEND
2020,
20222000,
2020,
2220,
20222020,
2,
20202022,
2,
1011,
10001011,
1011,
10001011,
1010,
10001011,
1110,
10101011,
1011,
1,
#GOGOSTART
20222020,
2220,
2120,
20222020,
10001011,
1110,
10101110,
20202220,
10111000,
10111000,
20222020,
2022,
20222000,
10001011,
1110,
10101011,
#GOGOEND
2,
,
1110,
10111000,
2220,
20222020,
2020,
20222000,
1010,
10111010,
#END
COURSE:Hard
LEVEL:5
SCOREINIT:
SCOREDIFF:
NOTESDESIGNER2:Colin
#START
2000220200101010,
01000000,
20010001,
20011020,
#GOGOSTART
1010200110102000,
1010200110102000,
1000200110102000,
10201122,
#GOGOEND
1000200100202020,
1002000000001010,
2000200200101000,
2002000000002020,
1000110100002020,
2001001000002022,
0020200200002020,
,
00000211,
2000102200202020,
1002000000101020,
10120211,
50800112,
20012002,
2010101100202010,
10101121,
22225000,
8,
#GOGOSTART
0020200100202020,
0020100100101010,
1010202200201010,
1010202200102010,
2020101100201020,
20010222,
2020201102022020,
21212022,
22221012,
10201120,
22221222,
12221122,
11212112,
2002022000101020,
22012122,
1010201100102020,
#GOGOEND
1,
2202202020203000,
2002002002022000,
2002002000202020,
2002002020202000,
2002002000202020,
2002002002002020,
2002002020202020,
2002002020002000,
2222,
#END
COURSE:Oni
LEVEL:8
SCOREINIT:
SCOREDIFF:
NOTESDESIGNER3:Colin
#START
2010120200102010,
0010001020120102,
02010221,
01010122,
#GOGOSTART
4011201022210112,
2010222100201020,
2011201120120122,
2012012010222220,
#GOGOEND
1010210200202020,
2012201202201010,
2010101200202020,
2012202020012010,
2020220200201010,
2011021000202021,
0010202100101020,
1020102010201021,
0110201020201010,
2010201202202010,
1012201201101020,
2010201202201010,
1012210200101020,
20212021,
2010102101102010,
1000101210102011,
2012012120120120,
3000101201202040,
#GOGOSTART
3020102101202020,
1020101101201020,
1010201202121010,
1010202201102010,
2020101101201020,
2012011010102020,
2020201102021020,
1010201122112222,
12122112,
12212121,
21221222,
12221111,
11212212,
2012012010101020,
22212122,
2211212211112020,
#GOGOEND
20000000000000002000000000002220,
2201201102112211,
2012002012012120,
2021012010201020,
2012011011222122,
1021012010202020,
2012011011012120,
2021012011201120,
2012012022112222,
1021012011201020,
#END