generated from DragonRatTiger/Custom-Charts
635 lines
4.6 KiB
Plaintext
635 lines
4.6 KiB
Plaintext
TITLE:Human
|
|
SUBTITLE:--FLAVOR FOLEY feat. SF-A2 miki
|
|
TITLEJA:Human
|
|
SUBTITLEJA:FLAVOR FOLEY feat. SF-A2 miki
|
|
PREIMAGE:Human.jpg
|
|
BGMOVIE:Human.mp4
|
|
WAVE:Human.ogg
|
|
BPM:200
|
|
OFFSET:-0.060
|
|
DEMOSTART:38.460
|
|
GENRE:ボーカロイド
|
|
MAKER:Colin
|
|
|
|
COURSE:Easy
|
|
LEVEL:2
|
|
NOTESDESIGNER0:Colin
|
|
|
|
#START
|
|
,
|
|
2,
|
|
,
|
|
2,
|
|
,
|
|
2,
|
|
2,
|
|
2,
|
|
,
|
|
1,
|
|
1,
|
|
11,
|
|
1,
|
|
1,
|
|
1,
|
|
11,
|
|
1,
|
|
2,
|
|
,
|
|
2,
|
|
,
|
|
2,
|
|
,
|
|
2,
|
|
2,
|
|
2,
|
|
,
|
|
2,
|
|
2,
|
|
2,
|
|
,
|
|
2,
|
|
,
|
|
#GOGOSTART
|
|
3,
|
|
1,
|
|
11,
|
|
1,
|
|
1,
|
|
1,
|
|
11,
|
|
1,
|
|
2,
|
|
2,
|
|
22,
|
|
2,
|
|
2,
|
|
#GOGOEND
|
|
0,
|
|
3,
|
|
1,
|
|
11,
|
|
1,
|
|
1,
|
|
1,
|
|
1,
|
|
,
|
|
2,
|
|
2,
|
|
22,
|
|
2,
|
|
2,
|
|
2,
|
|
2,
|
|
,
|
|
1,
|
|
,
|
|
1,
|
|
,
|
|
1,
|
|
,
|
|
1,
|
|
,
|
|
11,
|
|
1,
|
|
11,
|
|
1,
|
|
1,
|
|
1,
|
|
1,
|
|
,
|
|
6,
|
|
08,
|
|
,
|
|
,
|
|
6,
|
|
08,
|
|
,
|
|
,
|
|
22,
|
|
2,
|
|
22,
|
|
2,
|
|
22,
|
|
2,
|
|
22,
|
|
2,
|
|
#GOGOSTART
|
|
1,
|
|
1,
|
|
11,
|
|
1,
|
|
1,
|
|
1,
|
|
1,
|
|
,
|
|
2,
|
|
2,
|
|
22,
|
|
2,
|
|
2,
|
|
2,
|
|
2,
|
|
,
|
|
#MEASURE 16/4
|
|
#GOGOEND
|
|
0,
|
|
#MEASURE 4/4
|
|
0
|
|
#GOGOSTART
|
|
000,
|
|
1,
|
|
11,
|
|
1,
|
|
2,
|
|
2,
|
|
22,
|
|
2,
|
|
2,
|
|
#GOGOEND
|
|
0,
|
|
#GOGOSTART
|
|
3,
|
|
1,
|
|
11,
|
|
1,
|
|
1,
|
|
1,
|
|
11,
|
|
1,
|
|
2,
|
|
2,
|
|
22,
|
|
2,
|
|
2,
|
|
000
|
|
#GOGOEND
|
|
0,
|
|
#END
|
|
|
|
COURSE:Normal
|
|
LEVEL:5
|
|
NOTESDESIGNER1:Colin
|
|
|
|
#START
|
|
,
|
|
2,
|
|
,
|
|
2,
|
|
,
|
|
2,
|
|
2,
|
|
2,
|
|
,
|
|
1,
|
|
1,
|
|
1011,
|
|
1,
|
|
11,
|
|
1,
|
|
11,
|
|
1,
|
|
2,
|
|
,
|
|
2,
|
|
,
|
|
2,
|
|
,
|
|
2,
|
|
2,
|
|
2,
|
|
,
|
|
2,
|
|
2,
|
|
2,
|
|
,
|
|
2,
|
|
,
|
|
#GOGOSTART
|
|
30001001,
|
|
,
|
|
1011,
|
|
1,
|
|
10001001,
|
|
,
|
|
11,
|
|
1,
|
|
2002,
|
|
2,
|
|
22,
|
|
2,
|
|
2,
|
|
#GOGOEND
|
|
0,
|
|
3,
|
|
1,
|
|
1011,
|
|
1,
|
|
1,
|
|
10001011,
|
|
11,
|
|
1,
|
|
2,
|
|
2022,
|
|
22,
|
|
2,
|
|
20002022,
|
|
22,
|
|
2,
|
|
2,
|
|
1,
|
|
1,
|
|
1,
|
|
,
|
|
1,
|
|
1,
|
|
1,
|
|
,
|
|
11,
|
|
1001,
|
|
11,
|
|
10000011,
|
|
11,
|
|
1,
|
|
1,
|
|
,
|
|
6,
|
|
08,
|
|
,
|
|
,
|
|
6,
|
|
08,
|
|
,
|
|
,
|
|
22,
|
|
2,
|
|
2022,
|
|
2,
|
|
22,
|
|
2,
|
|
2022,
|
|
2,
|
|
#GOGOSTART
|
|
11,
|
|
1,
|
|
10001011,
|
|
1,
|
|
1011,
|
|
1011,
|
|
11,
|
|
1,
|
|
2002,
|
|
20002022,
|
|
22,
|
|
2,
|
|
22,
|
|
2,
|
|
22,
|
|
2,
|
|
#MEASURE 16/4
|
|
#GOGOEND
|
|
0,
|
|
#MEASURE 4/4
|
|
0
|
|
#GOGOSTART
|
|
600,
|
|
8,
|
|
11,
|
|
1,
|
|
2002,
|
|
2,
|
|
22,
|
|
2,
|
|
2,
|
|
#GOGOEND
|
|
0,
|
|
#GOGOSTART
|
|
30001001,
|
|
,
|
|
1011,
|
|
1,
|
|
10001001,
|
|
,
|
|
11,
|
|
1,
|
|
2002,
|
|
2,
|
|
22,
|
|
2,
|
|
2,
|
|
000
|
|
#GOGOEND
|
|
0,
|
|
#END
|
|
|
|
COURSE:Hard
|
|
LEVEL:5
|
|
NOTESDESIGNER2:Colin
|
|
|
|
#START
|
|
,
|
|
3,
|
|
,
|
|
2,
|
|
2,
|
|
2,
|
|
,
|
|
2,
|
|
2,
|
|
11,
|
|
1210,
|
|
11,
|
|
1210,
|
|
12,
|
|
1212,
|
|
11,
|
|
1,
|
|
2,
|
|
2002,
|
|
2,
|
|
0022,
|
|
22,
|
|
22020020,
|
|
22,
|
|
22,
|
|
11,
|
|
11,
|
|
11,
|
|
11,
|
|
11,
|
|
11,
|
|
11,
|
|
1020202010222020,
|
|
#GOGOSTART
|
|
30201121,
|
|
01201120,
|
|
10201121,
|
|
01201022,
|
|
1000201110102010,
|
|
01201120,
|
|
10210121,
|
|
01202120,
|
|
10210120,
|
|
11210120,
|
|
12020120,
|
|
10210120,
|
|
10201120,
|
|
#GOGOEND
|
|
0,
|
|
2112,
|
|
11022010,
|
|
21,
|
|
2012,
|
|
0212,
|
|
11012010,
|
|
58,
|
|
50008002,
|
|
12121021,
|
|
21220202,
|
|
02121011,
|
|
21210022,
|
|
02110101,
|
|
02020102,
|
|
02110102,
|
|
02120100,
|
|
2,
|
|
20020000,
|
|
2,
|
|
20020000,
|
|
2,
|
|
20020000,
|
|
2,
|
|
20020000,
|
|
11,
|
|
1110,
|
|
11,
|
|
1110,
|
|
11,
|
|
1110,
|
|
11,
|
|
12222220,
|
|
33330203,
|
|
03300000,
|
|
33330203,
|
|
0030300020222000,
|
|
33330203,
|
|
03300000,
|
|
33330203,
|
|
03300000,
|
|
12,
|
|
2111,
|
|
1122,
|
|
0212,
|
|
10120202,
|
|
01,
|
|
2000020000050000,
|
|
0008,
|
|
#GOGOSTART
|
|
6,
|
|
8,
|
|
,
|
|
,
|
|
11201121,
|
|
0022202010002000,
|
|
10201121,
|
|
01201120,
|
|
10201121,
|
|
0022202010002000,
|
|
10201121,
|
|
01201120,
|
|
11201121,
|
|
0022202010002000,
|
|
10201121,
|
|
01201120,
|
|
#MEASURE 16/4
|
|
#GOGOEND
|
|
0,
|
|
#MEASURE 4/4
|
|
00
|
|
#GOGOSTART
|
|
301121,
|
|
01201120,
|
|
10210121,
|
|
01202120,
|
|
10210120,
|
|
11210120,
|
|
12020120,
|
|
10210120,
|
|
10201120,
|
|
#GOGOEND
|
|
0,
|
|
#GOGOSTART
|
|
30201121,
|
|
01201120,
|
|
10201121,
|
|
01201022,
|
|
1000201110102010,
|
|
01201120,
|
|
10210121,
|
|
01202120,
|
|
10210120,
|
|
11210120,
|
|
12020120,
|
|
10210120,
|
|
10201120,
|
|
100
|
|
#GOGOEND
|
|
0,
|
|
#END
|
|
|
|
COURSE:Oni
|
|
LEVEL:9
|
|
NOTESDESIGNER3:Colin
|
|
|
|
#START
|
|
,
|
|
3,
|
|
0022,
|
|
20120120,
|
|
11010200,
|
|
2002,
|
|
1002,
|
|
11020201,
|
|
0012,
|
|
12,
|
|
10120020,
|
|
10120010,
|
|
22,
|
|
12,
|
|
10210120,
|
|
5,
|
|
81,
|
|
1,
|
|
1002,
|
|
1,
|
|
0012,
|
|
11,
|
|
2010001000020000,
|
|
12,
|
|
12,
|
|
12020102,
|
|
01010020,
|
|
12010102,
|
|
02,
|
|
5008,
|
|
5008,
|
|
5008,
|
|
3020222222222222,
|
|
#GOGOSTART
|
|
10201123,
|
|
0010201110102000,
|
|
10210123,
|
|
0010201212102020,
|
|
1000200010112030,
|
|
0010202210102000,
|
|
3000201110102030,
|
|
0010202010222020,
|
|
3000201212102030,
|
|
0010201110102020,
|
|
3000201110102030,
|
|
0010201120102010,
|
|
4000201110102000,
|
|
#GOGOEND
|
|
0,
|
|
3000201110102000,
|
|
1111202011012020,
|
|
1000201210102000,
|
|
1022202010112020,
|
|
1000200210102000,
|
|
1011202011112020,
|
|
1010201210102012,
|
|
1010201210102000,
|
|
3000201110102000,
|
|
1111202011222020,
|
|
1000201210102000,
|
|
1022202211112020,
|
|
1000200210102000,
|
|
1011202011112020,
|
|
1010201210102000,
|
|
1011202011112020,
|
|
10120201,
|
|
20120200,
|
|
11010020,
|
|
10210020,
|
|
20120201,
|
|
20120201,
|
|
20210120,
|
|
2001,
|
|
20120201,
|
|
20120201,
|
|
22010010,
|
|
22010000,
|
|
20120101,
|
|
20220012,
|
|
10120020,
|
|
12222230,
|
|
34440103,
|
|
03300010,
|
|
34440103,
|
|
0030300022111010,
|
|
34440103,
|
|
0030300022112000,
|
|
34440103,
|
|
0030300000221111,
|
|
2010101020111010,
|
|
2010101020111010,
|
|
2010101020111010,
|
|
2010101020111000,
|
|
3022222211112222,
|
|
1022222211112222,
|
|
1022102210221122,
|
|
1111222210000000,
|
|
#GOGOSTART
|
|
6,
|
|
8000200010112010,
|
|
0010201210102000,
|
|
1022202010222000,
|
|
1000201110102000,
|
|
1022202010222020,
|
|
10201120,
|
|
1022202011112000,
|
|
3011102010112222,
|
|
1022111122112211,
|
|
1111222211112222,
|
|
1111222211112222,
|
|
10201122,
|
|
1011201000222020,
|
|
1022202011112020,
|
|
12222222,
|
|
#MEASURE 16/4
|
|
#GOGOEND
|
|
0000000000000000000000000000000000000000000000000000000000000011,
|
|
#MEASURE 4/4
|
|
20
|
|
#GOGOSTART
|
|
#SCROLL 2
|
|
3
|
|
#SCROLL 1
|
|
01123,
|
|
0010202210102000,
|
|
3000201110102030,
|
|
0010202010222020,
|
|
3000201212102030,
|
|
0010201110102020,
|
|
3000201110102030,
|
|
0010201120102010,
|
|
4000201110102000,
|
|
#GOGOEND
|
|
0,
|
|
#GOGOSTART
|
|
30201123,
|
|
0010201110102000,
|
|
10210123,
|
|
0010201212102020,
|
|
1000200010112030,
|
|
0010202210102000,
|
|
3000201110102030,
|
|
0010202010222020,
|
|
3000201212102030,
|
|
0010201110102020,
|
|
3000201110102030,
|
|
0010201120102010,
|
|
4000201110102000,
|
|
220202
|
|
#GOGOEND
|
|
20,
|
|
#END |