Files
Colins_Custom_Charts/03 VOCALOID/IMAWANOKIWA/IMAWANOKIWA.tja
T

566 lines
6.3 KiB
Plaintext

TITLE:IMAWANOKIWA
SUBTITLE:--Iyowa feat. Miku Hatsune
TITLEJA:IMAWANOKIWA
SUBTITLEJA:いよわ feat. 初音ミク
PREIMAGE:IMAWANOKIWA.png
BGMOVIE:IMAWANOKIWA.mp4
WAVE:IMAWANOKIWA.ogg
BPM:178
OFFSET:-0.030
DEMOSTART:40.142
GENRE:ボーカロイド
MAKER:Colin
COURSE:Easy
LEVEL:3
NOTESDESIGNER0:Colin
#START
11,
1,
1011,
1,
22,
2,
2022,
2,
,
,
1,
1001,
,
,
1,
11,
1,
1,
2,
2002,
,
,
2,
22,
2,
2,
2,
2,
22,
,
3,
1,
5,
,
8,
1,
,
11,
1,
1,
3300,
33,
3,
3,
1,
1,
,
,
2,
2,
22,
2,
2,
2,
22,
2,
5,
8,
5,
8,
,
2,
2,
,
3,
1,
5,
,
8,
1,
,
11,
1,
1,
3300,
33,
3,
3,
1,
1,
2,
,
22,
2,
2,
2,
2,
,
2,
2,
22,
2,
2,
2,
2,
,
1,
#MEASURE 5/4
0,
#END
COURSE:Normal
LEVEL:4
BALLOON:16
NOTESDESIGNER1:Colin
#START
1011,
1,
10001011,
1,
2022,
2,
20002022,
22,
,
,
11,
10010010,
,
0011,
11,
10011001,
1,
1,
2,
20020022,
02,
0022,
2,
20022002,
2,
22,
2,
22,
22,
,
31,
1011,
5,
,
81,
10011000,
,
1110,
11,
11,
3303,
3333,
3003,
3,
11,
1,
,
,
22,
2220,
22,
2,
2022,
20002022,
22,
2022,
5,
8,
5,
8,
22,
2,
20002022,
2,
31,
1011,
5,
,
81,
10011000,
,
1110,
11,
11,
3303,
3333,
3003,
3,
11,
1,
7,
,
82,
2,
20002022,
22,
22,
2,
22,
2,
20002022,
22,
2,
2,
2,
,
1,
#MEASURE 5/4
0,
#END
COURSE:Hard
LEVEL:5
BALLOON:16,16,1,1,1,1,1,1,1,1,1,16
NOTESDESIGNER2:Colin
#START
10210012,
11212010,
2102,
1212,
11220212,
01020210,
10201021,
0011102050008000,
3,
00000012,
10021111,
1002002000022020,
0020102010201022,
0010201110102000,
01212202,
1001001010010010,
10020121,
20222012,
10021111,
1002002000022020,
02121212,
0010201110102000,
01212202,
1001001010010010,
10020121,
20222000,
11101102,
01120122,
11201221,
,
30212101,
2000101110102000,
7,
8033,
30011022,
10112012,
1010202220020020,
10201120,
1000001110100022,
200000100100202020100000,
3303,
3333,
30000110,
20000121,
20220221,
0011102050008000,
12,
12,
32120212,
2222,
10012122,
02102121,
01122212,
22210120,
10012022,
00012020,
5,
80000212,
5,
08,
1020200020020020,
0022201020020020,
1020200020020020,
,
30212101,
2000101110102000,
7,
8033,
30011022,
10112012,
1010202220020020,
10201120,
1000001110100022,
200000100100202020100000,
3303,
3333,
30000110,
20000121,
20220221,
0011102000111020,
7807807807807807,
8078078078001020,
1000201110102000,
1022002010201020,
1001001020001020,
1000202220102000,
11201120,
7,
80210012,
11212010,
2102,
1212,
11220212,
01020210,
10201021,
0011102050008000,
1002000000000000,
#MEASURE 5/4
12000,
#END
COURSE:Oni
LEVEL:8
NOTESDESIGNER3:Colin
#START
3010202000112010,
1010202120102000,
4000300210112010,
2011201021012010,
3010202000112010,
1010202120102000,
4000300210112010,
0012102050008000,
1011202210122020,
0010201210102000,
3000201110101021,
2021012011012020,
0020102010212022,
0011221120204000,
3012121210100020,
1022021010210120,
1001201000201022,
1010201210102000,
3000201120102012,
1012022010112020,
1022111122112020,
0012102120102020,
1012121212100020,
1021012020120110,
3001201210102021,
1001201210102000,
11101102,
01120122,
1010200010201120,
02022000,
3000201120102011,
100000000000200200200200100010001000200000100000,
1111222211112222,
1011201021012020,
3000201212102011,
1010201120120120,
1010201210110120,
1021202120102022,
1000201120102011,
100000000000200200200200100010001000200000100000,
4011201212104011,
2012101210121020,
3010202000112020,
1022102010102022,
10210121,
0012102050008000,
12201220,
12201000,
3020201120120220,
1020202120122020,
1020201120120220,
1020202120122020,
1020201120120220,
1020202120122020,
1021201120221020,
1021201120220120,
5,
8021201020220120,
5,
8021201120220120,
1022120210221020,
1020201120121020,
1021201220221020,
0002,
#SCROLL 2
3
#SCROLL 1
000201121102211,
100000000000200200200200100010001000200000100000,
1111222211112222,
1011201021012020,
3000201212102011,
1010201120120120,
1010201210110120,
1021202120102022,
1000201120102011,
100000000000200200200200100010001000200000100000,
4011201212104011,
2012101210121020,
3010202210112020,
1022102010102022,
10210121,
0012102000212020,
2012012012012012,
0120120120102022,
1010201212102020,
1022012012011022,
1012012012022012,
1020120112012020,
1102202011012020,
111111222222,
1010202000112010,
1010202120102000,
2002102012112010,
2011201021012010,
3010202000112010,
1010202120102000,
1010201212112010,
1022201120121020,
1002000000000000,
#MEASURE 5/4
12000,
#END
COURSE:Edit
LEVEL:10
BALLOON:1
NOTESDESIGNER4:Colin
#START
#GOGOSTART
3011201011012020,
100000100000200100100200000200100000200000101010,
100000100100200000100200100200101010200000200000,
1011202212102020,
1011201011012020,
1010211202102012,
1011201212112020,
1011202212102020,
#GOGOEND
1120201120122020,
1121201220201020,
3012201110102012,
1021021201102022,
1020102210121022,
1012112120202012,
1021212210121020,
1012022010112020,
1011202012112020,
101122121010
#SCROLL 2
78
#SCROLL 1
00,
3011202110102012,
1021012110122020,
3021212121212010,
1012101211212020,
1012122212102020,
1012021020120110,
3011202212012020,
1010212120102010,
33303303,
03230121,
3030200010201220,
02022020,
#GOGOSTART
3011202120112012,
100000100000200200100100200010001000200000100200,
1221211122112112,
1021202210212012,
1011202212102022,
1011202011212020,
1111202010210120,
1211202120112020,
1011201212112022,
100000000000200200100100200010002000100000101010,
1011202022122011,
1011202110212020,
1012202011212020,
1010212012112020,
1011202011012020,
1021202050000080,
#GOGOEND
0,
,
3020102120121020,
1020210210212020,
1020102120121020,
1020210210212020,
1020102120121020,
1020210210212020,
1020102120121020,
1020210210212020,
3021201020120120,
1021201021120120,
1021211120120120,
1121201120211020,
1021201120120220,
1021201120120120,
1021202012210120,
01222000,
#GOGOSTART
#SCROLL 2
3
#SCROLL 1
011202121202112,
100000100000200200100100200010001000200000100200,
1221211122112112,
1021202210212012,
1011202212102022,
1011202011212020,
1111202010210120,
1211202120112020,
1011201212112022,
100000000000200200100100200010002000100000101010,
1011202022122011,
1011202110212020,
1012202011212020,
1010212012112020,
1011202011012020,
10212020002120
#GOGOEND
20,
#GOGOSTART
2112112112112112,
100100200100100200100100200000100000202020101010,
1021121120210212,
1012112212021112,
100000100200000200200000100020001010200000100200,
1020120110210121,
1021012021021020,
101010111010202020222020,
1011201011012020,
1012022012012011,
2012101212012020,
100000100100200000200200100200102020100000200000,
1011201011012020,
1010211202102012,
1011201212112020,
1011202212102020,
#GOGOEND
1002000000000000,
#MEASURE 5/4
12000,
#END