Files
Colins_Custom_Charts/03 VOCALOID/Intergalactic Bound/Intergalactic Bound.tja
T
2025-12-20 15:52:49 -05:00

357 lines
4.1 KiB
Plaintext

TITLE:Intergalactic Bound
SUBTITLE:--Yunosuke & Circus-P feat. Miku Hatsune
TITLEJA:Intergalactic Bound
SUBTITLEJA:雄之助✕Circus-P feat. 初音ミク
PREIMAGE:Intergalactic Bound.png
BGMOVIE:Intergalactic Bound.mp4
WAVE:Intergalactic Bound.ogg
BPM:140
OFFSET:-0.030
DEMOSTART:81.601
MAKER:Colin
MAKER:Colin
COURSE:Easy
LEVEL:3
SCOREINIT:
SCOREDIFF:
NOTESDESIGNER0:Colin
#START
2,
20020000,
2,
20020000,
1,
1010,
1,
1010,
1,
1010,
1,
1010,
3010,
1110,
2020,
2220,
1010,
1110,
30030000,
3,
#GOGOSTART
4004004000000000,
1110,
4004004000000000,
1110,
3030,
1110,
4004004000000000,
1110,
5008,
5008,
3030,
1110,
5008,
5008,
3030,
1110,
#GOGOEND
2,
2,
2020,
2,
1011,
1010,
1,
2220,
2020,
2,
2022,
2,
4004
#GOGOSTART
004000000000,
1110,
4004004000000000,
1110,
3030,
1110,
4004004000000000,
1110,
5008,
5008,
3030,
1110,
5008,
5008,
3030,
1110,
#GOGOEND
2,
20020000,
2,
20020000,
2,
20020000,
2000000200000000,
20020011,
#END
COURSE:Normal
LEVEL:5
SCOREINIT:
SCOREDIFF:
NOTESDESIGNER1:Colin
#START
2,
2002002000000000,
2000000200000000,
2002002000000000,
1010,
10111000,
1010,
1111,
1010,
10111010,
1010,
1010,
30001011,
1110,
20002022,
2220,
10001011,
1110,
30030000,
3011,
#GOGOSTART
4004004000000000,
10111010,
4004004000000000,
10111010,
3030,
10111010,
4004004000000000,
10111010,
5008,
5008,
3030,
10111010,
5008,
5008,
3030,
10111010,
#GOGOEND
2,
2,
2020,
2,
1011,
1010,
1,
2220,
2020,
2,
2022,
2,
4004
#GOGOSTART
004000000000,
10111010,
4004004000000000,
10111010,
3030,
10111010,
4004004000000000,
10111010,
5008,
5008,
3030,
10111010,
5008,
5008,
3030,
10111010,
#GOGOEND
2,
20020000,
2,
20020000,
2,
20020000,
2000000200000000,
20020011,
#END
COURSE:Hard
LEVEL:5
SCOREINIT:
SCOREDIFF:
NOTESDESIGNER2:Colin
#START
1000100200100000,
2002002000002010,
2000200200100010,
2002001000001020,
1000002020020020,
1002002010002000,
1000002020020010,
1002001020002000,
1000001010020010,
1002002020001000,
2000002010020010,
1222,
40222210,
30300110,
10112220,
20100120,
20222112,
00222022,
20210202,
0020000000100110,
#GOGOSTART
3003003000400010,
0010201000200220,
3003003000400010,
01210220,
3434,
3010102000200220,
3003003000400030,
03440430,
6008,
6008,
40004003,
03440430,
6008,
6008,
40004003,
03440430,
#GOGOEND
1000100200100000,
2002002000002010,
2000200200100010,
2002001010002000,
20121021,
21212022,
22221222,
22122020,
11212021,
20212010,
20222022,
2,
3003
#GOGOSTART
003000400010,
0010201000200220,
3003003000400010,
01210220,
3434,
3010102000200220,
3003003000400030,
03440430,
6008,
6008,
40004003,
03440430,
6008,
6008,
40004003,
03440430,
#GOGOEND
1000100200100000,
2002002000002010,
2000200200100010,
2002001010002000,
2000100200100000,
2002002000002010,
2000200200100010,
2002001000002010,
#END
COURSE:Oni
LEVEL:8
SCOREINIT:
SCOREDIFF:
NOTESDESIGNER3:Colin
#START
1000100200100010,
2002002000102010,
2000200200100010,
2002001000001020,
1000002020020020,
2002002010002020,
1000200200200010,
2002001020102020,
1000100200100010,
2002002020102010,
1000100200100020,
1001001010002000,
3010202101102012,
1011220210102011,
1010201101102020,
1011021010112010,
1010201102102012,
1101201120102011,
2010203000102011,
2022122211104040,
#GOGOSTART
4012012010112101,
1011201210112020,
2012012201102010,
200000200100200100100100202020200000100000100000,
1011201010112010,
3022201211012010,
2012012010112010,
3011222211112020,
1011201101102010,
1011201101102010,
1011201101102010,
100000200100200100100100202020200000100000100000,
1011201101102010,
1011201101102010,
1011201101102010,
1011222211112022,
#GOGOEND
10202122,
20202122,
02102122,
200000000000200000202020100100000100100000100000,
30112021,
21212022,
22221222,
22122020,
11212021,
21212011,
20222022,
2000000000101120,
4004
#GOGOSTART
004010112101,
1011201210112020,
2012012201102010,
200000200100200100100100202020200000100000100000,
1011201010112010,
3022201211012010,
2012012010112010,
3011222211112020,
1011201101102010,
1011201101102010,
1011201101102010,
100000200100200100100100202020200000100000100000,
1011201101102010,
1011201101102010,
1011201101102010,
1011222211112022,
#GOGOEND
1000100200100010,
2002002000102010,
2000200200100010,
2002001000001020,
1000100200100010,
2002002000102010,
2000200200100010,
2002001000002010,
#END