generated from DragonRatTiger/Custom-Charts
580 lines
6.1 KiB
Plaintext
580 lines
6.1 KiB
Plaintext
TITLE:Liar Dancer
|
|
SUBTITLE:--Masalada feat. Teto Kasane
|
|
TITLEJA:ライアーダンサー
|
|
SUBTITLEJA:マサラダ feat. 重音テト
|
|
PREIMAGE:Liar Dancer.png
|
|
BGMOVIE:Liar Dancer.mp4
|
|
WAVE:Liar Dancer.ogg
|
|
BPM:170
|
|
OFFSET:-1.171
|
|
DEMOSTART:60.112
|
|
MAKER:Colin
|
|
|
|
COURSE:Easy
|
|
LEVEL:3
|
|
SCOREINIT:
|
|
SCOREDIFF:
|
|
NOTESDESIGNER0:Colin
|
|
|
|
#START
|
|
1010,
|
|
1,
|
|
1010,
|
|
1,
|
|
1010,
|
|
1,
|
|
1010,
|
|
1,
|
|
#GOGOSTART
|
|
1011,
|
|
1010,
|
|
1011,
|
|
1010,
|
|
1011,
|
|
1010,
|
|
1011,
|
|
1010,
|
|
#GOGOEND
|
|
40400440,
|
|
2020,
|
|
2,
|
|
2020,
|
|
2,
|
|
2020,
|
|
2,
|
|
2020,
|
|
2,
|
|
1011,
|
|
1,
|
|
1010,
|
|
1010,
|
|
1010,
|
|
1110,
|
|
2020,
|
|
2,
|
|
1010,
|
|
1,
|
|
1010,
|
|
1010,
|
|
1020,
|
|
1010,
|
|
1010,
|
|
5,
|
|
80000011,
|
|
#GOGOSTART
|
|
30333030,
|
|
3332,
|
|
1011,
|
|
1022,
|
|
1020,
|
|
1110,
|
|
1020,
|
|
4,
|
|
1011,
|
|
1010,
|
|
1011,
|
|
1010,
|
|
1011,
|
|
1010,
|
|
2000200
|
|
#GOGOEND
|
|
0,
|
|
,
|
|
#GOGOSTART
|
|
1010,
|
|
1,
|
|
2020,
|
|
2220,
|
|
1010,
|
|
1,
|
|
2020,
|
|
2,
|
|
#MEASURE 2/4
|
|
#BARLINEOFF
|
|
,
|
|
#MEASURE 4/4
|
|
#GOGOEND
|
|
#BARLINEON
|
|
1011,
|
|
1010,
|
|
1010,
|
|
1,
|
|
2020,
|
|
2,
|
|
2020,
|
|
5,
|
|
8,
|
|
1,
|
|
1,
|
|
1044,
|
|
4,
|
|
1010,
|
|
1,
|
|
1111,
|
|
10000011,
|
|
#GOGOSTART
|
|
30333030,
|
|
3332,
|
|
1011,
|
|
1022,
|
|
1020,
|
|
1110,
|
|
1020,
|
|
2,
|
|
1011,
|
|
1010,
|
|
1011,
|
|
1010,
|
|
1011,
|
|
1010,
|
|
20002005,
|
|
00
|
|
#GOGOEND
|
|
80,
|
|
#GOGOSTART
|
|
1011,
|
|
1010,
|
|
1011,
|
|
1010,
|
|
2022,
|
|
2020,
|
|
2022,
|
|
2020,
|
|
1020,
|
|
1110,
|
|
1020,
|
|
1110,
|
|
1020,
|
|
1110,
|
|
1020,
|
|
1111,
|
|
#GOGOEND
|
|
30300440,
|
|
#END
|
|
|
|
COURSE:Normal
|
|
LEVEL:5
|
|
SCOREINIT:
|
|
SCOREDIFF:
|
|
NOTESDESIGNER1:Colin
|
|
|
|
#START
|
|
1011,
|
|
1010,
|
|
1011,
|
|
1010,
|
|
1011,
|
|
1010,
|
|
1011,
|
|
1,
|
|
#GOGOSTART
|
|
10111010,
|
|
1010,
|
|
10111010,
|
|
1010,
|
|
10111010,
|
|
1010,
|
|
10111010,
|
|
1010,
|
|
#GOGOEND
|
|
40400440,
|
|
2222,
|
|
2020,
|
|
2222,
|
|
2200,
|
|
2222,
|
|
2020,
|
|
2222,
|
|
2010,
|
|
10001110,
|
|
1010,
|
|
10001011,
|
|
1010,
|
|
10001011,
|
|
1110,
|
|
20202022,
|
|
2020,
|
|
1110,
|
|
1110,
|
|
1111,
|
|
1011,
|
|
1022,
|
|
1010,
|
|
1111,
|
|
5,
|
|
80000011,
|
|
#GOGOSTART
|
|
30333011,
|
|
01101120,
|
|
10111010,
|
|
10002220,
|
|
10112010,
|
|
1110,
|
|
10112020,
|
|
4,
|
|
10001011,
|
|
10001011,
|
|
1111,
|
|
3333,
|
|
3011,
|
|
1011,
|
|
2011200
|
|
#GOGOEND
|
|
0,
|
|
,
|
|
#GOGOSTART
|
|
10111010,
|
|
1010,
|
|
20222020,
|
|
2220,
|
|
10111010,
|
|
1020,
|
|
20222020,
|
|
2010,
|
|
#MEASURE 2/4
|
|
#BARLINEOFF
|
|
,
|
|
#MEASURE 4/4
|
|
#GOGOEND
|
|
#BARLINEON
|
|
10001011,
|
|
1011,
|
|
1011,
|
|
1022,
|
|
2022,
|
|
2020,
|
|
2022,
|
|
5,
|
|
8,
|
|
1010,
|
|
1,
|
|
1044,
|
|
4010,
|
|
1011,
|
|
1010,
|
|
1111,
|
|
10000011,
|
|
#GOGOSTART
|
|
30333030,
|
|
11011020,
|
|
10111010,
|
|
10002022,
|
|
10002011,
|
|
10101011,
|
|
1121,
|
|
20002022,
|
|
1111,
|
|
10111010,
|
|
1211,
|
|
1212,
|
|
10101011,
|
|
1111,
|
|
20002005,
|
|
00
|
|
#GOGOEND
|
|
80,
|
|
#GOGOSTART
|
|
10111010,
|
|
1010,
|
|
10111010,
|
|
10001011,
|
|
2122,
|
|
2020,
|
|
20222020,
|
|
2220,
|
|
10222020,
|
|
1110,
|
|
10222020,
|
|
1110,
|
|
10222020,
|
|
1110,
|
|
10222020,
|
|
1111,
|
|
#GOGOEND
|
|
30304440,
|
|
#END
|
|
|
|
COURSE:Hard
|
|
LEVEL:6
|
|
SCOREINIT:
|
|
SCOREDIFF:
|
|
NOTESDESIGNER2:Colin
|
|
|
|
#START
|
|
1010200020220020,
|
|
11125008,
|
|
1010200020220020,
|
|
12121020,
|
|
1010200020220020,
|
|
11125008,
|
|
1010200020220020,
|
|
50000008,
|
|
#GOGOSTART
|
|
1010200020220020,
|
|
1011022050000080,
|
|
1010200020220020,
|
|
12121111,
|
|
1010200020220020,
|
|
1011022050000080,
|
|
1010200020220020,
|
|
12121111,
|
|
#GOGOEND
|
|
40400440,
|
|
1111,
|
|
11102220,
|
|
1000101010010010,
|
|
11110000,
|
|
1020102020020010,
|
|
20111000,
|
|
2020101020020020,
|
|
50800001,
|
|
1020102010010020,
|
|
11222022,
|
|
11201120,
|
|
12112122,
|
|
1000102010010020,
|
|
22222000,
|
|
11201020,
|
|
3333,
|
|
3000101040040040,
|
|
4000004030030030,
|
|
3000003040040040,
|
|
40112021,
|
|
10201120,
|
|
10201120,
|
|
10201120,
|
|
1010101110111011,
|
|
20000011,
|
|
#GOGOSTART
|
|
3000111030001020,
|
|
10121212,
|
|
10224040,
|
|
40111111,
|
|
10222222,
|
|
01212101,
|
|
10221030,
|
|
4000202010222000,
|
|
12101210,
|
|
12101212,
|
|
10201120,
|
|
3434,
|
|
30201120,
|
|
10201120,
|
|
10001000300300
|
|
#GOGOEND
|
|
60,
|
|
0080,
|
|
#GOGOSTART
|
|
1011500000800000,
|
|
2022202220002000,
|
|
1000200010110020,
|
|
10201120,
|
|
1011500000800000,
|
|
2022202220002000,
|
|
1000200010110020,
|
|
10201120,
|
|
#MEASURE 2/4
|
|
#BARLINEOFF
|
|
33,
|
|
#MEASURE 4/4
|
|
#GOGOEND
|
|
#BARLINEON
|
|
3000000040040040,
|
|
4000000040040040,
|
|
4004004040040040,
|
|
40201122,
|
|
20102011,
|
|
2121,
|
|
2000101020111010,
|
|
22222222,
|
|
2,
|
|
1010,
|
|
1110,
|
|
11113030,
|
|
30201210,
|
|
10201210,
|
|
10201210,
|
|
2222,
|
|
11101111,
|
|
#GOGOSTART
|
|
3000111030001010,
|
|
01121202,
|
|
10224040,
|
|
40011111,
|
|
10022222,
|
|
01212101,
|
|
10221030,
|
|
4000202010222000,
|
|
12101210,
|
|
12101212,
|
|
10201120,
|
|
3434,
|
|
30201120,
|
|
10201120,
|
|
1000100030030060,
|
|
00
|
|
#GOGOEND
|
|
80,
|
|
#GOGOSTART
|
|
1010200020220020,
|
|
1011022050000080,
|
|
1010200020020020,
|
|
12121222,
|
|
1010200020220020,
|
|
1011022050000080,
|
|
1010200020020020,
|
|
1020100010201022,
|
|
2010200020220020,
|
|
1011022050000080,
|
|
1010200020020020,
|
|
12121212,
|
|
1010200020220020,
|
|
1011022050000080,
|
|
1010200020020020,
|
|
12121210,
|
|
#GOGOEND
|
|
30304440,
|
|
#END
|
|
|
|
COURSE:Oni
|
|
LEVEL:9
|
|
BALLOON:4
|
|
SCOREINIT:
|
|
SCOREDIFF:
|
|
NOTESDESIGNER3:Colin
|
|
|
|
#START
|
|
2011201120120120,
|
|
2022102020120120,
|
|
2011201120120212,
|
|
1022101210221210,
|
|
2011201120120120,
|
|
2011201121120120,
|
|
2011201121120120,
|
|
2000000022222000,
|
|
#GOGOSTART
|
|
4011201120120120,
|
|
2221012011212020,
|
|
1120201120120210,
|
|
1020112010212020,
|
|
4011201120120120,
|
|
2221012011212020,
|
|
1120201120120210,
|
|
1020112010212020,
|
|
#GOGOEND
|
|
4000400011204020,
|
|
2010101020121010,
|
|
21212220,
|
|
1010202010121020,
|
|
21217080,
|
|
1020102010121010,
|
|
2022201010202000,
|
|
1020101020010010,
|
|
100000000000200000202020100100200200100000100200,
|
|
1010112010121120,
|
|
1020112011221211,
|
|
1020112020121020,
|
|
1120112011221111,
|
|
1020201110210120,
|
|
2020202211222020,
|
|
1020112211222011,
|
|
2010201120112020,
|
|
3000201040040030,
|
|
4000204030030040,
|
|
4004004040040040,
|
|
4020102010112020,
|
|
3020112020120120,
|
|
2012102010212010,
|
|
41414141,
|
|
4021201022222222,
|
|
20101011,
|
|
#GOGOSTART
|
|
3020112010201122,
|
|
1020112010221120,
|
|
1020112010221120,
|
|
32323232,
|
|
3020112011221020,
|
|
1020112010221120,
|
|
1020112010201020,
|
|
4020112010212010,
|
|
1012102211221022,
|
|
1122102210121020,
|
|
1012101110121020,
|
|
4333,
|
|
2011201211012020,
|
|
1011201211012022,
|
|
10112010300300
|
|
#GOGOEND
|
|
40,
|
|
0000222220102000,
|
|
#GOGOSTART
|
|
2011201210212121,
|
|
2021201210212211,
|
|
2011201120120120,
|
|
1020112020122020,
|
|
2011201210212121,
|
|
2021201210212211,
|
|
2011201120120120,
|
|
1011202022112020,
|
|
#MEASURE 2/4
|
|
#BARLINEOFF
|
|
33,
|
|
#MEASURE 4/4
|
|
#GOGOEND
|
|
#BARLINEON
|
|
3000201040040030,
|
|
4000204030030040,
|
|
4004004040040040,
|
|
4020102010112020,
|
|
3020112020120120,
|
|
2012102010212010,
|
|
41414141,
|
|
4021201022222222,
|
|
20000011,
|
|
10111011,
|
|
01121101,
|
|
22223030,
|
|
30421222,
|
|
2021001010210020,
|
|
1021002010210120,
|
|
2222,
|
|
200000100000100000100000100100101010100000100000,
|
|
#GOGOSTART
|
|
3020112010201122,
|
|
1020112010221120,
|
|
1020112010221120,
|
|
32323232,
|
|
3020112011221020,
|
|
1020112010221120,
|
|
1020112010201020,
|
|
4020112010212010,
|
|
1012102211221022,
|
|
1122102210121020,
|
|
1012101110121020,
|
|
4333,
|
|
4011201211012020,
|
|
1011201211012022,
|
|
1011201030030040,
|
|
00002222
|
|
#GOGOEND
|
|
20202000,
|
|
#GOGOSTART
|
|
4011201120120120,
|
|
2221012011212020,
|
|
1120201120120210,
|
|
1020112010212020,
|
|
4011201120120120,
|
|
2221012011212020,
|
|
1120201120120210,
|
|
1020112010212020,
|
|
4011201120120120,
|
|
2221012011212020,
|
|
1120201120120210,
|
|
1020112010212020,
|
|
4011201120120120,
|
|
2221012011212020,
|
|
1120201120120210,
|
|
1020112010212020,
|
|
#GOGOEND
|
|
40404440,
|
|
#END |