Files
Colins_Custom_Charts/03 VOCALOID/Memoria/Memoria.tja
T
2025-12-20 15:52:49 -05:00

473 lines
4.6 KiB
Plaintext

TITLE:Memoria
SUBTITLE:--Aira feat. Miku Hatsune
TITLEJA:メモリア
SUBTITLEJA:Aira feat. 初音ミク
PREIMAGE:Memoria.png
BGMOVIE:Memoria.mp4
WAVE:Memoria.ogg
BPM:410
OFFSET:-2.362
DEMOSTART:54.166
MAKER:Colin
COURSE:Easy
LEVEL:4
SCOREINIT:
SCOREDIFF:
NOTESDESIGNER0:Colin
#START
#MEASURE 8/4
#GOGOSTART
#SCROLL 0.5
30
#GOGOEND
0
#GOGOSTART
30
#GOGOEND
0
#GOGOSTART
30,
60,
#MEASURE 4/4
#GOGOEND
#BPMCHANGE 205
#SCROLL 1
8,
#GOGOSTART
1010,
1110,
2020,
2220,
1010,
1110,
2020,
2,
1010,
1110,
2020,
2220,
30030030,
03003000,
#GOGOEND
3,
,
2020,
2220,
2020,
2220,
1010,
1010,
1,
,
1010,
1110,
1010,
1,
40040040,
04004000,
6008,
,
2,
,
#MEASURE 5/4
0200000000,
#MEASURE 3/4
200,
#MEASURE 2/4
20,
#MEASURE 3/4
200,
#MEASURE 2/4
20,
#MEASURE 4/4
40040040,
04004040,
6,
8,
#GOGOSTART
1010,
1110,
2020,
2222,
2020,
1110,
5,
8,
1010,
1110,
2024,
,
1010,
1015,
,
0080,
#GOGOEND
#BPMCHANGE 102.5
#SCROLL 2
2020,
#MEASURE 8/4
#GOGOSTART
#BPMCHANGE 410
#SCROLL 0.5
50,
,
80,
11,
10,
11,
10,
10101010,
50,
,
#GOGOEND
80,
#END
COURSE:Normal
LEVEL:7
SCOREINIT:
SCOREDIFF:
NOTESDESIGNER1:Colin
#START
#MEASURE 8/4
#GOGOSTART
#SCROLL 0.5
30
#GOGOEND
0
#GOGOSTART
30
#GOGOEND
0
#GOGOSTART
30,
60,
#MEASURE 4/4
#GOGOEND
#BPMCHANGE 205
#SCROLL 1
8,
#GOGOSTART
1010,
10111000,
2020,
20222000,
1010,
10101011,
2020,
2,
10001011,
1110,
2020,
2222,
30030030,
03003000,
#GOGOEND
3,
,
2020,
20202022,
2020,
2220,
1010,
1010,
1010,
,
1010,
10101011,
1010,
1,
40040040,
04004000,
6008,
,
20020002,
0222,
#MEASURE 5/4
2200050008,
#MEASURE 3/4
200,
#MEASURE 2/4
20,
#MEASURE 3/4
200,
#MEASURE 2/4
20,
#MEASURE 4/4
40040040,
04004040,
6,
8,
#GOGOSTART
1010,
10111020,
2020,
20202220,
2020,
10101110,
5,
8,
1110,
10111010,
2024,
,
1110,
1115,
,
0080,
#GOGOEND
#BPMCHANGE 102.5
#SCROLL 2
2020,
#MEASURE 8/4
#GOGOSTART
#BPMCHANGE 410
#SCROLL 0.5
50,
,
80,
11,
10001010,
10001010,
11,
10101011,
50,
,
#GOGOEND
80,
#END
COURSE:Hard
LEVEL:7
BALLOON:4,4,2,9,9
SCOREINIT:
SCOREDIFF:
NOTESDESIGNER2:Colin
#START
#MEASURE 8/4
#GOGOSTART
#SCROLL 0.5
70
#GOGOEND
8
#GOGOSTART
70
#GOGOEND
8
#GOGOSTART
78,
60,
#MEASURE 4/4
#GOGOEND
#BPMCHANGE 205
#SCROLL 1
8,
#GOGOSTART
11020112,
0011101050000000,
8020001000111010,
0700,
80122210,
2022204000400040,
3700,
8000101110102020,
11020112,
0011101050000000,
8020001000111010,
01220202,
30030030,
03003000,
#GOGOEND
6,
0080,
10201120,
10201120,
10210120,
10201122,
1212,
12220212,
5080,
,
1110202020001010,
00010222,
10210110,
0010200020020020,
20210120,
1010001020020010,
5,
8,
22220201,
01222022,
#MEASURE 5/4
2202020000,
#MEASURE 3/4
111100100,
#MEASURE 2/4
10,
#MEASURE 3/4
222200200,
#MEASURE 2/4
20,
#MEASURE 4/4
40140140,
14004040,
6,
8,
#GOGOSTART
12222011,
02102222,
11020222,
4343,
40120222,
2212,
5,
8,
12222011,
12102222,
11020260,
0008,
22122222,
2212,
0600,
0800,
#GOGOEND
#BPMCHANGE 102.5
#SCROLL 2
2020,
#MEASURE 8/4
#GOGOSTART
#BPMCHANGE 410
#SCROLL 0.5
60,
,
80,
10202220,
10102020,
10101010,
4011100040111000,
4011100030003000,
60,
,
#GOGOEND
80,
#END
COURSE:Oni
LEVEL:10
SCOREINIT:
SCOREDIFF:
NOTESDESIGNER3:Colin
#START
#MEASURE 8/4
#GOGOSTART
#SCROLL 0.5
1122
#GOGOEND
10
#GOGOSTART
1122
#GOGOEND
10
#GOGOSTART
1122,
1011221122112211,
#MEASURE 4/4
#GOGOEND
#BPMCHANGE 205
#SCROLL 1
2000000000000022,
#GOGOSTART
1020112010222020,
1022101022221111,
2220201020112020,
100100101010202020101010,
2011202020201010,
2011204010402022,
1020222212221111,
200000101010100000100000200000200000200000200200,
1010221010112020,
1022101022221111,
1020112010112020,
1011202010202022,
1022203022203022,
2030222030222222,
#GOGOEND
100122222222,
2222111110202020,
2011101220202020,
1022111120222020,
100000100100100000100000200000100000202020200000,
1011222210102020,
112212221202,
21221212,
100000100100100000100000200010001000200010001000,
2222,
2011201020202011,
1022111010201020,
1111201011102020,
1010201110102020,
4011103022204011,
1040222040040030,
4010201110201020,
1122111120202022,
22220201,
01222022,
#MEASURE 5/4
2202050008,
#MEASURE 3/4
111222222,
#MEASURE 2/4
111100,
#MEASURE 3/4
222112222,
#MEASURE 2/4
111100,
#MEASURE 4/4
4011104011104011,
1040111040104010,
6,
8340,
#GOGOSTART
1020112010201120,
1020112010222020,
2211202010112020,
41414141,
4011201020102022,
1020112010201122,
1011222211112222,
111222122111,
2010112010201120,
1020112210201120,
2222102011201022,
1020222211111111,
2010222210102222,
1011201022112020,
1111222211112222,
1011201040404040,
#GOGOEND
#BPMCHANGE 102.5
#SCROLL 2
3022020220202020,
#MEASURE 8/4
#GOGOSTART
#BPMCHANGE 410
#SCROLL 0.5
122102122222,
111211212122,
112211112211,
100010200020200200200200,
212122112222,
122222112112,
1022102210112022,
1011201120112222,
1020221111111111,
20404040,
#GOGOEND
30,
#END