Files
Colins_Custom_Charts/03 VOCALOID/Override/Override.tja
T
2025-12-20 15:52:49 -05:00

577 lines
5.5 KiB
Plaintext

TITLE:Override
SUBTITLE:--Yasei Yoshida feat. Teto Kasane
TITLEJA:オーバーライド
SUBTITLEJA:吉田夜世 feat. 重音テト
PREIMAGE:Override.jpg
BGMOVIE:Override.mp4
WAVE:Override.ogg
BPM:204
OFFSET:-0.384
DEMOSTART:40.089
MAKER:Colin
SKIN:3
CATEGORY:3
COURSE:Easy
LEVEL:4
SCOREINIT:
SCOREDIFF:
NOTESDESIGNER0:Colin
#START
2222,
2220,
#GOGOSTART
1010,
1110,
1010,
1110,
2020,
2220,
2020,
2220,
#GOGOEND
1,
1010,
1,
1,
1010,
1,
1010,
1,
2020,
2,
2022,
2020,
2,
2020,
2,
1110,
1,
1,
1,
1110,
2,
2,
4040,
4440,
#GOGOSTART
1010,
1110,
1010,
1110,
2020,
2220,
2020,
2,
1010,
1110,
1010,
1110,
2020,
2220,
1010,
101
#GOGOEND
01000,
#GOGOSTART
2,
2022,
2020,
2,
1010,
1110,
1010,
1,
#GOGOEND
2,
2020,
2,
2020,
2,
2020,
2,
2220,
1,
1010,
1,
1010,
1,
1010,
1,
2220,
,
1010,
#GOGOSTART
1010,
1110,
2020,
2220,
1010,
1110,
2020,
2220,
1010,
1110,
2020,
2220,
1010,
1110,
2222,
200
#GOGOEND
00000,
#GOGOSTART
1020,
1110,
1010,
1110,
2020,
2220,
2020,
2220,
1,
1010,
1,
1010,
1,
1010,
1110,
100
#GOGOEND
01000,
#GOGOSTART
2,
2220,
2020,
2,
1010,
1110,
1010,
1110,
#GOGOEND
3,
#END
COURSE:Normal
LEVEL:5
SCOREINIT:
SCOREDIFF:
NOTESDESIGNER1:Colin
#START
2222,
2220,
#GOGOSTART
1010,
10111000,
1010,
10111000,
2020,
20222000,
2020,
20222020,
#GOGOEND
1010,
1110,
1010,
1110,
1010,
1110,
1010,
1110,
2020,
2220,
20002022,
2020,
2020,
2220,
2020,
1110,
1,
1010,
1,
10111010,
2,
2022,
4040,
4440,
#GOGOSTART
1110,
10111000,
1010,
10111000,
2020,
20222000,
2220,
2020,
1011,
1110,
10001011,
1110,
2020,
20222020,
1010,
101
#GOGOEND
11010,
#GOGOSTART
2,
20222020,
2020,
20222000,
1010,
10111000,
1010,
10111000,
#GOGOEND
2,
2220,
2020,
2220,
2020,
2220,
2022,
20222000,
1010,
1110,
1010,
10111000,
1010,
1110,
1010,
20222000,
1,
1011,
#GOGOSTART
1010,
10111000,
2220,
20222000,
1010,
10111000,
2220,
20222000,
1010,
10111000,
2020,
20222020,
1011,
1110,
20222020,
200
#GOGOEND
00000,
#GOGOSTART
1120,
10111000,
10111000,
1110,
2022,
20222000,
2220,
20222000,
1010,
1110,
1010,
10111000,
1010,
10111000,
1110,
101
#GOGOEND
11000,
#GOGOSTART
2,
2220,
2020,
20222000,
1010,
10111000,
1010,
10111010,
#GOGOEND
3,
#END
COURSE:Hard
LEVEL:7
SCOREINIT:
SCOREDIFF:
NOTESDESIGNER2:Colin
#START
2222,
12101110,
#GOGOSTART
1000102010001022,
20211111,
1000102010001022,
20212022,
1000102010001022,
20211111,
1000102010001022,
20212022,
#GOGOEND
20120121,
22200221,
20120121,
11200122,
10210122,
11212020,
20011020,
20212000,
20210122,
11200121,
20200221,
10222020,
11221221,
21201020,
1212,
22112122,
10012001,
20012120,
20012001,
20022122,
10101121,
20211020,
30033003,
3431,
#GOGOSTART
40212222,
1221,
10212110,
20102021,
20222221,
20101012,
10111213,
40403002,
20111221,
20212010,
10121222,
20112010,
20122211,
20201120,
10202221,
200
#GOGOEND
22221,
#GOGOSTART
2000102010001022,
20211111,
1000102010001022,
20212022,
1000102010001022,
20211111,
1000102010001022,
20212022,
#GOGOEND
20111222,
22112121,
20211212,
12111122,
20212022,
11112222,
10211112,
12222020,
20112111,
21122121,
20112121,
10211221,
20212222,
22112122,
10122222,
21122222,
10000001,
21222010,
#GOGOSTART
40212222,
1221,
10212110,
20122021,
20222221,
20101012,
10111213,
40403002,
20111221,
20212010,
10121222,
20112010,
20122211,
20201120,
10202221,
200
#GOGOEND
22220,
#GOGOSTART
20212011,
10112010,
10112020,
1120,
10112010,
10112020,
1110102220102020,
1122,
20212121,
2211,
20212221,
1212,
20211111,
2222,
10212222,
100
#GOGOEND
12212,
#GOGOSTART
2000102010001022,
20211111,
1000102010001022,
20212022,
1000102010001022,
20211111,
1000102010001022,
20212022,
#GOGOEND
4,
#END
COURSE:Oni
LEVEL:9
SCOREINIT:
SCOREDIFF:
NOTESDESIGNER3:Colin
#START
2222,
1022102220201000,
#GOGOSTART
3020101210201011,
1020102210201020,
1020101210201011,
1020102210201020,
1020101210201011,
1020102210201020,
1020101210201011,
2222111110221010,
#GOGOEND
20120121,
21201212,
10121122,
1010202010102022,
20211122,
11212020,
12121120,
2010202020002222,
1010202210202022,
2010202210102011,
2010201110202010,
1010202210221020,
1000202210202012,
2010201110102022,
2010202210102022,
1020102220102020,
2011201020221010,
2121221120102011,
2021221020102211,
2011201120112020,
1020102010221020,
12222222,
30034003,
3430,
#GOGOSTART
4010201120102011,
2010201122102010,
2011201210102010,
2010221120102011,
2010221120102011,
2012101020112210,
2011201120102011,
2011201210102010,
4010201120102011,
2010201122102010,
2011201210102010,
2010221120102011,
2010221120102011,
2012101020112210,
2011201120102011,
201120
#GOGOEND
1210102010,
#GOGOSTART
3020101210201011,
1020102210201020,
1020101210201011,
1020102210201020,
1020101210201011,
1020102210201020,
1020101210201011,
2222111110221020,
#GOGOEND
30111122,
22122122,
20221211,
1020201010202022,
20222121,
21112222,
20211111,
2022202210221111,
1020102220201022,
1020101120102010,
2000101120201020,
1010201220202020,
1000201120202011,
22122222,
1000102220202020,
2010201120202022,
12020201,
44444000,
#GOGOSTART
4010201120102011,
2010201122102010,
2011201210102010,
2010221120102011,
2010221120102011,
2012101020112210,
2011201120102011,
2011201210102010,
4010201120102011,
2010201122102010,
2011201210102010,
2010221120102011,
2010221120102011,
2012101020112210,
2011201120102011,
201120
#GOGOEND
1210102010,
#GOGOSTART
2222101120102010,
1020101120102020,
1220101120102020,
1020102220201020,
1110101120102020,
1020101120102020,
1210101120102020,
2120102210221111,
2011202120102010,
2011201110102011,
2010201110102010,
2011202210102010,
2010201110102010,
2011201020112010,
2010221120102010,
212
#GOGOEND
12211,
#GOGOSTART
4020101210201011,
1020102210201020,
1020101210201011,
1020102210201020,
1020101210201011,
1020102210201020,
1020101210201011,
2222111110221010,
#GOGOEND
4,
#END