Files
Colins_Custom_Charts/03 VOCALOID/Peachy Key/Peachy Key.tja
T
2025-12-20 15:52:49 -05:00

426 lines
3.8 KiB
Plaintext

TITLE:The Peachy Key
SUBTITLE:--Iyowa feat. MORE MORE JUMP! / Project SEKAI COLORFUL STAGE!
TITLEJA:ももいろの鍵
SUBTITLEJA:いよわ feat. MORE MORE JUMP! 「プロジェクトセカイ カラフルステージ!」より
PREIMAGE:Peachy Key.png
BGMOVIE:Peachy Key.mp4
BPM:164.839
OFFSET:-0.134
DEMOSTART:54.368
WAVE:Peachy Key.ogg
MAKER:Colin
GENRE:ボーカロイド
COURSE:Easy
LEVEL:2
BALLOON:15
#START
#BARLINEOFF
0,
#BARLINEON
22,
22,
22,
1,
11,
1110,
11,
1,
7,
,
82,
2,
11,
1,
11,
1,
11,
1,
12,
1,
2,
2,
22,
2,
11,
1,
11,
1,
2,
2,
2,
2,
1,
1,
1,
11,
#GOGOSTART
3300,
0333,
0333,
,
5,
08,
12,
2,
3333,
0333,
0333,
03,
6,
,
8022,
#GOGOEND
58,
1,
11,
1,
11,
3,
3,
3,
3,
2,
2,
22,
2,
2,
2,
44,
4,
11,
#GOGOSTART
3333,
0333,
0333,
3330,
6,
,
82,
2220,
0333,
0333,
0333,
33,
6,
,
8044,
#GOGOEND
6,
8,
2,
22,
2,
#END
COURSE:Normal
LEVEL:4
BALLOON:20
#START
#BARLINEOFF
0,
#BARLINEON
2120,
2120,
2120,
1,
1110,
10111000,
1011,
1,
7,
,
82,
20002220,
1110,
1110,
10111010,
1,
1210,
1210,
10112000,
11,
22,
2220,
20202022,
2,
1210,
1210,
10101110,
1,
2220,
2220,
2220,
2,
1210,
1210,
1210,
11,
#GOGOSTART
30333030,
00333030,
00333030,
30333000,
5,
08,
10102011,
2,
30333330,
00333330,
00333330,
03,
6,
,
8022,
#GOGOEND
58,
1220,
1210,
1210,
1210,
33,
33,
33,
32,
22,
22,
22,
2,
22,
22,
44,
4,
1111,
#GOGOSTART
30333330,
00333330,
00333330,
3330,
6,
,
80202022,
2220,
00333330,
00333330,
00333330,
33,
6,
,
8044,
#GOGOEND
6,
8,
21,
2120,
2,
#END
COURSE:Hard
LEVEL:4
BALLOON:16,6,6,14,12,12,12,12,12,12,12,12,12,12,12,12
#START
#BARLINEOFF
0,
#BARLINEON
20111001,
10111001,
20202022,
10001111,
20221002,
20221001,
10201011,
12,
7,
,
81,
10002222,
10221001,
10221001,
20102022,
10001111,
20221001,
20221001,
20102022,
5008,
3032,
10111001,
10202022,
10011111,
10111001,
20221001,
10101011,
12,
7008,
7008,
7,
0008,
1010200011102000,
11210120,
11211020,
20202022,
#GOGOSTART
20434312,
10434312,
10434312,
10221020,
7008,
7008,
10201121,
4004004000400200,
20434312,
10434312,
10434312,
10221020,
7008,
7008,
10201121,
#GOGOEND
2000200020002222,
2000200022011020,
1002002010001000,
1110200010201020,
1000000200102000,
7008,
7008,
7008,
7008,
20222002,
20222002,
20202022,
20002222,
20222002,
20222002,
20202022,
5008,
2000200022202220,
#GOGOSTART
10434312,
10434312,
10434312,
10221020,
7008,
7008,
10201121,
4004004000400020,
20434312,
10434312,
10434312,
10221020,
7008,
7008,
10201121,
#GOGOEND
1000100010001022,
2,
2,
20202022,
2,
#END
COURSE:Oni
LEVEL:8
#START
#BARLINEOFF
0,
#BARLINEON
4001201110122020,
1002202011012020,
1000201110112020,
1001202211012022,
1001201110122020,
1002202011012020,
1001201110112020,
1001202211012022,
102111222111,
202111222111,
21,
20002122,
20211001,
20121001,
20201012,
10002121,
20111002,
20211001,
10101012,
5000000080300300,
30001001,
20221001,
10102021,
10012222,
20212002,
10222002,
1000201110102020,
58,
222021102000,
112102202000,
222100200200,
2211,
111222111200,
120211202000,
211201200100,
3,
#GOGOSTART
#SCROLL 1.3
30
#SCROLL 1
00201120102000,
1000201120102000,
1000201110112020,
1001201020121020,
112010101211,
102120101110,
4011201020112222,
1003004000302102,
1000201120102000,
1000201120102000,
1000201110112020,
1001201020121020,
112010200011,
201010202110,
400000100100200000100000200000001000200010002000,
#GOGOEND
1000100010002222,
1022021012012010,
2022022010221020,
1011201020222010,
2011202010222120,
111122111122,
111122111122,
111122111221,
101120101120,
22,
22,
22,
2220,
10221002,
22111002,
33,
30222222,
2020202022222222,
#GOGOSTART
1000201120102000,
1000201120102000,
1000201110112020,
1001201020121020,
112010101211,
102120101110,
4011201020112222,
1003004000302102,
1000201120102000,
1000201120102000,
1000201110112020,
1001201020121020,
112010200011,
201010202110,
400000100100200000100000200000001000200010002000,
#GOGOEND
1000100010002222,
102020100012,
222112,
20102012,
1,
#END