Files
Colins_Custom_Charts/03 VOCALOID/Perfect Number/Perfect Number.tja
T
2025-12-20 15:52:49 -05:00

1524 lines
16 KiB
Plaintext

TITLE:The Perfect Number
TITLEJA:完全数
SUBTITLE:--Ann-Melts-P feat. Miku Hatsune, Len Kagamine, Rin Kagamine, Luka Megurine, MEIKO, & KAITO
SUBTITLEJA:アンメルツP feat. 初音ミク、鏡音レン、鏡音リン、巡音ルカ、MEIKO、KAITO
BPM:243
WAVE:Perfect Number.ogg
PREIMAGE:Perfect Number.jpg
OFFSET:-3.02
DEMOSTART:100.57
MAKER:Colin
BGMOVIE:Perfect Number.mp4
GENRE:ボーカロイド
COURSE:Easy
LEVEL:4
BALLOON:15,16,15
SCOREINIT:
SCOREDIFF:
NOTESDESIGNER0:Colin
#START
#MEASURE 3/4
#GOGOSTART
200,
200,
200,
202,
200,
200,
200,
500,
,
,
800,
,
,
000
#GOGOEND
000000000,
#BPMCHANGE 216
100,
111,
100,
100,
100,
111,
100,
100,
100,
100,
111,
100,
100,
100,
100,
100,
#BPMCHANGE 280
#SCROLL 0.771429
7
#BPMCHANGE 220
#SCROLL 0.981818
0
#BPMCHANGE 278
#SCROLL 0.776978
0,
#BPMCHANGE 222
#SCROLL 0.972973
0
#BPMCHANGE 286
#SCROLL 0.755245
0
#BPMCHANGE 217
#SCROLL 0.995392
0,
0
#BPMCHANGE 245
#SCROLL 0.881633
0
#BPMCHANGE 157
#SCROLL 1.3758
0,
#BPMCHANGE 216
#SCROLL 1
000,
,
#MEASURE 2/4
80,
#MEASURE 5/4
00000,
#MEASURE 7/4
2000220,
#MEASURE 5/4
20000,
#MEASURE 4/4
2020,
#MEASURE 3/4
200,
200,
200,
,
,
#MEASURE 5/8
00000,
#MEASURE 13/8
2000002000000,
#MEASURE 3/4
200,
#BPMCHANGE 259
#SCROLL 0.833977
200,
#BPMCHANGE 162
#SCROLL 1.33333
000,
#BPMCHANGE 216
#SCROLL 1
000,
,
#MEASURE 2/4
00,
#MEASURE 3/4
100,
111,
100,
100,
500,
,
,
800,
100,
100,
111,
101,
001,
001,
005,
008,
,
200,
202,
500,
#MEASURE 24/32
800,
#MEASURE 4/32
0,
#MEASURE 2/32
0,
#MEASURE 20/32
00000,
#MEASURE 2/32
0,
,
,
,
,
#MEASURE 1/32
0,
,
,
,
#MEASURE 2/32
0,
,
,
,
,
,
#MEASURE 1/32
0,
,
,
,
,
#MEASURE 2/32
0,
,
,
,
,
#MEASURE 1/32
0,
,
,
,
,
#MEASURE 3/4
#BPMCHANGE 162
#SCROLL 1.33333
000,
#MEASURE 4/4
#BPMCHANGE 224
#SCROLL 1
2,
2,
2,
2,
2,
2,
2,
2,
#MEASURE 8/4
#BPMCHANGE 250
#SCROLL 1
2
#BPMCHANGE 270
#SCROLL 0.925926
2,
#BPMCHANGE 295
#SCROLL 0.847458
2
#BPMCHANGE 320
#SCROLL 0.78125
2,
#BPMCHANGE 345
#SCROLL 0.724638
2
#BPMCHANGE 370
#SCROLL 0.675676
2,
#BPMCHANGE 403
#SCROLL 0.620347
20,
#MEASURE 16/4
#BPMCHANGE 435
#SCROLL 0.574713
1
#BPMCHANGE 466
#SCROLL 0.536481
1
#BPMCHANGE 490
#SCROLL 0.510204
1
#BPMCHANGE 511
#SCROLL 0.489237
0,
#BPMCHANGE 535
#SCROLL 0.46729
1
#BPMCHANGE 561
#SCROLL 0.445633
1
#BPMCHANGE 590
#SCROLL 0.423729
1
#BPMCHANGE 601
#SCROLL 0.415973
0,
#BPMCHANGE 632
#SCROLL 0.39557
1
#BPMCHANGE 660
#SCROLL 0.378788
1
#BPMCHANGE 680
#SCROLL 0.367647
1
#BPMCHANGE 700
#SCROLL 0.357143
0,
#BPMCHANGE 730
#SCROLL 0.342466
1
#BPMCHANGE 750
#SCROLL 0.333333
1
#BPMCHANGE 780
#SCROLL 0.320513
1
#BPMCHANGE 800
#SCROLL 0.3125
0,
#BPMCHANGE 822
#SCROLL 0.304136
1
#BPMCHANGE 850
#SCROLL 0.294118
1
#BPMCHANGE 868
#SCROLL 0.288018
1
#BPMCHANGE 900
#SCROLL 0.277778
0,
#BPMCHANGE 920
#SCROLL 0.271739
1
#BPMCHANGE 950
#SCROLL 0.263158
1
#BPMCHANGE 966
#SCROLL 0.258799
1
#BPMCHANGE 986
#SCROLL 0.25355
0,
#BPMCHANGE 992
#SCROLL 0.252016
1010,
1010,
7000,
,
,
,
#MEASURE 8/4
#BPMCHANGE 248
#SCROLL 1
80,
#MEASURE 4/4
#GOGOSTART
#BPMCHANGE 216
3011,
1010,
4022,
2020,
3011,
1010,
4022,
6008,
1010,
1011,
1020,
1020,
1011,
1010,
2022,
5008,
#MEASURE 3/4
101,
101,
110,
100,
200,
200,
222,
200,
101,
101,
101,
100,
101,
101,
101,
500,
800,
222,
200,
200,
200,
222,
200,
200,
200,
222,
200,
202,
202,
200,
222,
222,
#GOGOEND
#BPMCHANGE 280
#SCROLL 0.771429
7
#BPMCHANGE 220
#SCROLL 0.981818
0
#BPMCHANGE 278
#SCROLL 0.776978
0,
#BPMCHANGE 222
#SCROLL 0.972973
0
#BPMCHANGE 286
#SCROLL 0.755245
0
#BPMCHANGE 217
#SCROLL 0.995392
0,
0
#BPMCHANGE 245
#SCROLL 0.881633
0
#BPMCHANGE 157
#SCROLL 1.3758
0,
#BPMCHANGE 216
#SCROLL 1
000,
000000000008,
,
#END
COURSE:Normal
LEVEL:6
BALLOON:15,16,15
SCOREINIT:
SCOREDIFF:
NOTESDESIGNER1:Colin
#START
#MEASURE 3/4
#GOGOSTART
200,
202,
202,
202,
202,
202,
200,
500,
,
,
800,
,
,
000
#GOGOEND
000000000,
#BPMCHANGE 216
101,
101011,
101,
101,
100011,
111,
101,
100,
100011,
101,
111,
100011,
101,
100,
101,
100,
#BPMCHANGE 280
#SCROLL 0.771429
7
#BPMCHANGE 220
#SCROLL 0.981818
0
#BPMCHANGE 278
#SCROLL 0.776978
0,
#BPMCHANGE 222
#SCROLL 0.972973
0
#BPMCHANGE 286
#SCROLL 0.755245
0
#BPMCHANGE 217
#SCROLL 0.995392
0,
0
#BPMCHANGE 245
#SCROLL 0.881633
0
#BPMCHANGE 157
#SCROLL 1.3758
0,
#BPMCHANGE 216
#SCROLL 1
000,
,
#MEASURE 2/4
80,
#MEASURE 5/4
20222,
#MEASURE 7/4
20000000222020,
#MEASURE 5/4
20000,
#MEASURE 4/4
20022020,
#MEASURE 3/4
200,
200200,
222,
222200,
200200,
#MEASURE 5/8
20200,
#MEASURE 13/8
2000002000000,
#MEASURE 3/4
200,
#BPMCHANGE 259
#SCROLL 0.833977
200,
#BPMCHANGE 162
#SCROLL 1.33333
000,
#BPMCHANGE 216
#SCROLL 1
000,
,
#MEASURE 2/4
00,
#MEASURE 3/4
100011,
111,
100011,
111,
500,
,
,
800,
100011,
101,
111,
101,
001110,
001,
015,
008,
,
222,
200220,
500,
#MEASURE 24/32
800,
#MEASURE 4/32
0,
#MEASURE 2/32
0,
#MEASURE 20/32
00000,
#MEASURE 2/32
0,
,
,
,
,
#MEASURE 1/32
0,
,
,
,
#MEASURE 2/32
0,
,
,
,
,
,
#MEASURE 1/32
0,
,
,
,
,
#MEASURE 2/32
0,
,
,
,
,
#MEASURE 1/32
0,
,
,
,
,
#MEASURE 3/4
#BPMCHANGE 162
#SCROLL 1.33333
000,
#MEASURE 4/4
#BPMCHANGE 224
#SCROLL 1
2020,
2,
2020,
2,
2020,
2,
2020,
2,
#MEASURE 8/4
#BPMCHANGE 250
#SCROLL 1
2020
#BPMCHANGE 270
#SCROLL 0.925926
2000,
#BPMCHANGE 295
#SCROLL 0.847458
2020
#BPMCHANGE 320
#SCROLL 0.78125
2000,
#BPMCHANGE 345
#SCROLL 0.724638
2020
#BPMCHANGE 370
#SCROLL 0.675676
2000,
#BPMCHANGE 403
#SCROLL 0.620347
20202000,
#MEASURE 16/4
#BPMCHANGE 435
#SCROLL 0.574713
1000
#BPMCHANGE 466
#SCROLL 0.536481
1000
#BPMCHANGE 490
#SCROLL 0.510204
1010
#BPMCHANGE 511
#SCROLL 0.489237
1000,
#BPMCHANGE 535
#SCROLL 0.46729
1000
#BPMCHANGE 561
#SCROLL 0.445633
1000
#BPMCHANGE 590
#SCROLL 0.423729
1010
#BPMCHANGE 601
#SCROLL 0.415973
1000,
#BPMCHANGE 632
#SCROLL 0.39557
1000
#BPMCHANGE 660
#SCROLL 0.378788
1000
#BPMCHANGE 680
#SCROLL 0.367647
1010
#BPMCHANGE 700
#SCROLL 0.357143
1000,
#BPMCHANGE 730
#SCROLL 0.342466
1000
#BPMCHANGE 750
#SCROLL 0.333333
1000
#BPMCHANGE 780
#SCROLL 0.320513
1010
#BPMCHANGE 800
#SCROLL 0.3125
1000,
#BPMCHANGE 822
#SCROLL 0.304136
1000
#BPMCHANGE 850
#SCROLL 0.294118
1000
#BPMCHANGE 868
#SCROLL 0.288018
1010
#BPMCHANGE 900
#SCROLL 0.277778
1000,
#BPMCHANGE 920
#SCROLL 0.271739
1000
#BPMCHANGE 950
#SCROLL 0.263158
1000
#BPMCHANGE 966
#SCROLL 0.258799
1010
#BPMCHANGE 986
#SCROLL 0.25355
1000,
#BPMCHANGE 992
#SCROLL 0.252016
1110,
1110,
7000,
,
,
,
#MEASURE 8/4
#BPMCHANGE 248
#SCROLL 1
80,
#MEASURE 4/4
#GOGOSTART
#BPMCHANGE 216
30111010,
1012,
40002022,
2020,
30001011,
1110,
40222020,
6008,
10111010,
1011,
1022,
1020,
10001011,
1012,
20002022,
5008,
#MEASURE 3/4
101110,
101,
111,
100,
202220,
200200,
202022,
202,
101,
100110,
100110,
100100,
101,
101,
111,
500,
800,
222,
202220,
202,
200022,
222,
202,
200022,
202,
222,
202,
202,
202220,
202,
222,
222,
#GOGOEND
#BPMCHANGE 280
#SCROLL 0.771429
7
#BPMCHANGE 220
#SCROLL 0.981818
0
#BPMCHANGE 278
#SCROLL 0.776978
0,
#BPMCHANGE 222
#SCROLL 0.972973
0
#BPMCHANGE 286
#SCROLL 0.755245
0
#BPMCHANGE 217
#SCROLL 0.995392
0,
0
#BPMCHANGE 245
#SCROLL 0.881633
0
#BPMCHANGE 157
#SCROLL 1.3758
0,
#BPMCHANGE 216
#SCROLL 1
000,
000000000008,
,
#END
COURSE:Hard
LEVEL:5
BALLOON:32,18
SCOREINIT:
SCOREDIFF:
NOTESDESIGNER2:Colin
#START
#MEASURE 3/4
#GOGOSTART
100011,
111,
112,
200022,
201,
202,
111,
500,
,
,
800,
,
,
000
#GOGOEND
000000000,
#BPMCHANGE 216
200022,
222222,
222,
100022,
202,
111,
222,
202,
100110,
222022,
202220,
101,
102,
222,
111,
202,
#BPMCHANGE 280
#SCROLL 0.771429
2
#BPMCHANGE 220
#SCROLL 0.981818
2
#BPMCHANGE 278
#SCROLL 0.776978
2,
#BPMCHANGE 222
#SCROLL 0.972973
2
#BPMCHANGE 286
#SCROLL 0.755245
2
#BPMCHANGE 217
#SCROLL 0.995392
2,
2000
#BPMCHANGE 245
#SCROLL 0.881633
0000
#BPMCHANGE 157
#SCROLL 1.3758
2200,
#BPMCHANGE 216
#SCROLL 1
222,
220,
#MEASURE 2/4
20,
#MEASURE 5/4
10000020002020010000,
#MEASURE 7/4
100000101010101010100200000000200000200000,
#MEASURE 5/4
10000020001010020020,
#MEASURE 4/4
010010020020,
#MEASURE 3/4
200111,
100200,
201110,
222200,
100001000020,
#MEASURE 5/8
20200,
#MEASURE 13/8
10000010000100000000000020,
#MEASURE 3/4
200200,
#BPMCHANGE 259
#SCROLL 0.833977
100,
#BPMCHANGE 162
#SCROLL 1.33333
200,
#BPMCHANGE 216
#SCROLL 1
000,
,
#MEASURE 2/4
20,
#MEASURE 3/4
100110,
115,
800222,
222,
500822,
222,
100111,
508,
100112,
221,
100220,
122,
010220,
221,
022250,
008,
200212,
222,
100220,
500,
#MEASURE 24/32
800,
#MEASURE 4/32
0,
#MEASURE 2/32
0,
#MEASURE 20/32
00000,
#MEASURE 2/32
0,
,
,
,
,
#MEASURE 1/32
0,
,
,
,
#MEASURE 2/32
0,
,
,
,
,
,
#MEASURE 1/32
0,
,
,
,
,
#MEASURE 2/32
0,
,
,
,
,
#MEASURE 1/32
0,
,
,
,
,
#MEASURE 3/4
#BPMCHANGE 162
#SCROLL 1.33333
000,
#MEASURE 4/4
#BPMCHANGE 224
#SCROLL 1
1,
1,
1,
100200200200101010100200,
1000000020002220,
2010,
20021122,
1110,
#MEASURE 8/4
#BPMCHANGE 250
#SCROLL 1
10022222
#BPMCHANGE 270
#SCROLL 0.925926
10010010,
#BPMCHANGE 295
#SCROLL 0.847458
10020020
#BPMCHANGE 320
#SCROLL 0.78125
10002000,
#BPMCHANGE 345
#SCROLL 0.724638
1000
#BPMCHANGE 370
#SCROLL 0.675676
1020,
#BPMCHANGE 403
#SCROLL 0.620347
50000008,
#MEASURE 16/4
#BPMCHANGE 435
#SCROLL 0.574713
1000
#BPMCHANGE 466
#SCROLL 0.536481
1000
#BPMCHANGE 490
#SCROLL 0.510204
1010
#BPMCHANGE 511
#SCROLL 0.489237
1000,
#BPMCHANGE 535
#SCROLL 0.46729
1000
#BPMCHANGE 561
#SCROLL 0.445633
1000
#BPMCHANGE 590
#SCROLL 0.423729
1010
#BPMCHANGE 601
#SCROLL 0.415973
1000,
#BPMCHANGE 632
#SCROLL 0.39557
1000
#BPMCHANGE 660
#SCROLL 0.378788
1000
#BPMCHANGE 680
#SCROLL 0.367647
1010
#BPMCHANGE 700
#SCROLL 0.357143
1000,
#BPMCHANGE 730
#SCROLL 0.342466
1000
#BPMCHANGE 750
#SCROLL 0.333333
1000
#BPMCHANGE 780
#SCROLL 0.320513
1010
#BPMCHANGE 800
#SCROLL 0.3125
1000,
#BPMCHANGE 822
#SCROLL 0.304136
1000
#BPMCHANGE 850
#SCROLL 0.294118
1000
#BPMCHANGE 868
#SCROLL 0.288018
1010
#BPMCHANGE 900
#SCROLL 0.277778
1000,
#BPMCHANGE 920
#SCROLL 0.271739
1000
#BPMCHANGE 950
#SCROLL 0.263158
1000
#BPMCHANGE 966
#SCROLL 0.258799
1010
#BPMCHANGE 986
#SCROLL 0.25355
1000,
#BPMCHANGE 992
#SCROLL 0.252016
1110,
1111,
7000,
,
,
,
#MEASURE 8/4
#BPMCHANGE 248
#SCROLL 1
80,
#MEASURE 4/4
#GOGOSTART
#BPMCHANGE 216
300000000000000000100100100000002000000010000000,
100010002000200000200100,
2021,
10011000,
2000001020020020,
100000000200000000200000200000002000200000000000,
1000001110001000,
5008,
20012010,
1122,
10012222,
22221000,
20012020,
20021010,
1000001110002000,
5008,
#MEASURE 3/4
100200,
100200,
100200,
500008,
100200,
100200,
100200,
500008,
102002200,
200002200,
700,
,
800,
101,
101,
500,
800022,
222222,
222,
100022,
202,
111,
222,
202,
100110,
222022,
202220,
101,
102,
222,
111,
202,
#GOGOEND
#BPMCHANGE 280
#SCROLL 0.771429
2
#BPMCHANGE 220
#SCROLL 0.981818
2
#BPMCHANGE 278
#SCROLL 0.776978
2,
#BPMCHANGE 222
#SCROLL 0.972973
2
#BPMCHANGE 286
#SCROLL 0.755245
2
#BPMCHANGE 217
#SCROLL 0.995392
2,
200
#BPMCHANGE 245
#SCROLL 0.881633
000
#BPMCHANGE 157
#SCROLL 1.3758
220,
#BPMCHANGE 216
#SCROLL 1
222,
220,
200,
#END
COURSE:Oni
LEVEL:10
SCOREINIT:
SCOREDIFF:
NOTESDESIGNER3:Colin
#START
#MEASURE 3/4
#GOGOSTART
102222,
102222,
333,
302222,
102222,
102222,
333,
111111111111,
111111111111,
111111111111,
111111111111,
111111111111,
111111111111,
111
#GOGOEND
100000000,
#BPMCHANGE 216
200000200200222200,
100200200200222100,
100100200200222200,
100200200200222200,
100000200200222200,
100100200200222200,
100100200200222200,
112121,
101212,
221221,
102121,
201020101022,
121212,
121211,
102010112022,
102210221022,
#BPMCHANGE 280
#SCROLL 0.771429
1000
#BPMCHANGE 220
#SCROLL 0.981818
1110
#BPMCHANGE 278
#SCROLL 0.776978
1000,
#BPMCHANGE 222
#SCROLL 0.972973
111100
#BPMCHANGE 286
#SCROLL 0.755245
100000
#BPMCHANGE 217
#SCROLL 0.995392
222200,
202020100100
#BPMCHANGE 245
#SCROLL 0.881633
100100000000
#BPMCHANGE 157
#SCROLL 1.3758
100010000000,
#BPMCHANGE 216
#SCROLL 1
222100222100222100,
202020100000202020202020100100000000,
#MEASURE 2/4
202020202020100100000000,
#MEASURE 5/4
10001020002010010020,
#MEASURE 7/4
1000101012221220001020101000,
#MEASURE 5/4
1000000000000000000010000000002000000000000000000010000000001000000000100002000010000000000010000000,
#MEASURE 4/4
1110201011,
#MEASURE 3/4
100020201001020,
100222100200000100,
200000100200102000,
101110201020,
101020002010200200,
#MEASURE 5/8
11200,
#MEASURE 13/8
200000100000100000100020000000000100200000100000100000100200000000000000200000,
#MEASURE 3/4
201010120000,
#BPMCHANGE 259
#SCROLL 0.833977
100,
#BPMCHANGE 162
#SCROLL 1.33333
200,
#BPMCHANGE 216
#SCROLL 1
121222,
222211112222,
#MEASURE 2/4
00,
#MEASURE 3/4
100020202022,
200000200000100010001000200000100100,
201020201022,
100200102020200200,
100020222222,
112210102000,
100000202020100200,
102020102020100100,
122212112020,
100000200000100010001000200200200200,
101020112020,
112222221020,
222222111111111111,
100010001000200200200200100010001000,
111222100,
102010201120,
100200100200222222,
101010202020222222,
102101100,
222212221111,
#MEASURE 24/32
200,
#MEASURE 4/32
0,
#MEASURE 2/32
0,
#MEASURE 20/32
00000,
#MEASURE 2/32
0,
,
,
,
,
#MEASURE 1/32
0,
,
,
,
#MEASURE 2/32
0,
,
,
,
,
,
#MEASURE 1/32
0,
,
,
,
,
#MEASURE 2/32
0,
,
,
,
,
#MEASURE 1/32
0,
,
,
,
,
#MEASURE 3/4
#BPMCHANGE 162
#SCROLL 1.33333
000,
#MEASURE 4/4
#BPMCHANGE 224
#SCROLL 1
2,
1,
10112020,
200200100100102020102020,
1000000022222020,
2010,
20021222,
1,
#MEASURE 8/4
#BPMCHANGE 250
#SCROLL 1
1000001020202020
#BPMCHANGE 270
#SCROLL 0.925926
2000102000102211,
#BPMCHANGE 295
#SCROLL 0.847458
20020010
#BPMCHANGE 320
#SCROLL 0.78125
20001010,
#BPMCHANGE 345
#SCROLL 0.724638
20000022
#BPMCHANGE 370
#SCROLL 0.675676
10102000,
#BPMCHANGE 403
#SCROLL 0.620347
50000008,
#MEASURE 16/4
#BPMCHANGE 435
#SCROLL 0.574713
100000100000100000000000
#BPMCHANGE 466
#SCROLL 0.536481
100000200000100200100200
#BPMCHANGE 490
#SCROLL 0.510204
100000100000200000100000
#BPMCHANGE 511
#SCROLL 0.489237
200020002000200020000000,
#BPMCHANGE 535
#SCROLL 0.46729
100000202020
#BPMCHANGE 561
#SCROLL 0.445633
100000200200
#BPMCHANGE 590
#SCROLL 0.423729
101010202020
#BPMCHANGE 601
#SCROLL 0.415973
100200100000,
#BPMCHANGE 632
#SCROLL 0.39557
10202010
#BPMCHANGE 660
#SCROLL 0.378788
10221010
#BPMCHANGE 680
#SCROLL 0.367647
20102010
#BPMCHANGE 700
#SCROLL 0.357143
20102000,
#BPMCHANGE 730
#SCROLL 0.342466
1020
#BPMCHANGE 750
#SCROLL 0.333333
1010
#BPMCHANGE 780
#SCROLL 0.320513
1020
#BPMCHANGE 800
#SCROLL 0.3125
1110,
#BPMCHANGE 822
#SCROLL 0.304136
2022
#BPMCHANGE 850
#SCROLL 0.294118
1010
#BPMCHANGE 868
#SCROLL 0.288018
2022
#BPMCHANGE 900
#SCROLL 0.277778
1022,
#BPMCHANGE 920
#SCROLL 0.271739
1020
#BPMCHANGE 950
#SCROLL 0.263158
1010
#BPMCHANGE 966
#SCROLL 0.258799
1122
#BPMCHANGE 986
#SCROLL 0.25355
1010,
#BPMCHANGE 992
#SCROLL 0.252016
2010201020202010,
2011101020102020,
2012102011102211,
2010211120102211,
2020102012221222,
1111201011221111,
#MEASURE 8/4
#BPMCHANGE 248
#SCROLL 1
00,
#MEASURE 4/4
#GOGOSTART
#BPMCHANGE 216
30000000002000000000100000000010000100002000200000002000200000002000000020002000,
2010201020212011,
2010201120202222,
1022112212112211,
20000000001000000000200000000010000100002000200000002000200000002000000020002000,
100000100000200000100100200020002000100100100100,
2010201120102011,
100100200100201010100100,
2010202221112111,
2010201122221111,
202020202010200100201020,
200020001000100010002000100200100100100100100200,
2010201122112222,
2010201122221111,
2010201120102010,
2222111120202222,
#MEASURE 3/4
112211,
222111,
100100200200101010,
201010201011,
112121,
112220,
221111,
202020102020102121,
201202201,
201201101,
122211111,
222222102020102020,
102101201,
102101101,
222222111111101010,
222111222,
202211221120,
112210112020,
102010102222,
112210201022,
102010221022,
102010201120,
102011201011,
202010201111,
211120102020,
112210201120,
112211211212,
101120102010,
202210201122,
100111100200100200,
122122122,
121212,
#GOGOEND
#BPMCHANGE 280
#SCROLL 0.771429
1000
#BPMCHANGE 220
#SCROLL 0.981818
1110
#BPMCHANGE 278
#SCROLL 0.776978
1000,
#BPMCHANGE 222
#SCROLL 0.972973
111100
#BPMCHANGE 286
#SCROLL 0.755245
100000
#BPMCHANGE 217
#SCROLL 0.995392
222200,
202020100100
#BPMCHANGE 245
#SCROLL 0.881633
100100000000
#BPMCHANGE 157
#SCROLL 1.3758
100010000000,
#BPMCHANGE 216
#SCROLL 1
222100222100222100,
202020100000202020202020100100000000,
202020202020100100000000000000000000,
#END