generated from DragonRatTiger/Custom-Charts
554 lines
5.6 KiB
Plaintext
554 lines
5.6 KiB
Plaintext
TITLE:Queen
|
|
SUBTITLE:--Hachioji-P feat. Miku Hatsune / Project SEKAI COLORFUL STAGE!
|
|
TITLEJA:嬢王
|
|
SUBTITLEJA:八王子P feat. 初音ミク「プロジェクトセカイカラフルステージ!」より
|
|
PREIMAGE:Queen.png
|
|
BGMOVIE:Queen.mp4
|
|
WAVE:Queen.ogg
|
|
BPM:200
|
|
OFFSET:-0.257
|
|
DEMOSTART:33.857
|
|
MAKER:Colin
|
|
|
|
COURSE:Easy
|
|
LEVEL:4
|
|
BALLOON:4
|
|
SCOREINIT:
|
|
SCOREDIFF:
|
|
NOTESDESIGNER0:Colin
|
|
|
|
#START
|
|
,
|
|
,
|
|
,
|
|
,
|
|
2020,
|
|
2220,
|
|
2020,
|
|
2,
|
|
1010,
|
|
1110,
|
|
1010,
|
|
1110,
|
|
1010,
|
|
1110,
|
|
1010,
|
|
,
|
|
2020,
|
|
2220,
|
|
2020,
|
|
2,
|
|
2020,
|
|
2220,
|
|
2020,
|
|
2,
|
|
1010,
|
|
1,
|
|
1010,
|
|
1,
|
|
1010,
|
|
1110,
|
|
1010,
|
|
1110,
|
|
1010,
|
|
1110,
|
|
1010,
|
|
,
|
|
2020,
|
|
2220,
|
|
2020,
|
|
2220,
|
|
2020,
|
|
2220,
|
|
2020,
|
|
2020,
|
|
#MEASURE 16/4
|
|
3000,
|
|
#MEASURE 4/4
|
|
#BPMCHANGE 150
|
|
3,
|
|
1003,
|
|
3,
|
|
3003,
|
|
3020,
|
|
2220,
|
|
2020,
|
|
2220,
|
|
2020,
|
|
2220,
|
|
2020,
|
|
2020,
|
|
5,
|
|
#BPMCHANGE 160
|
|
0,
|
|
#BPMCHANGE 170
|
|
8,
|
|
#BPMCHANGE 180
|
|
3,
|
|
#BPMCHANGE 185
|
|
3030,
|
|
#BPMCHANGE 190
|
|
3,
|
|
#BPMCHANGE 195
|
|
3030,
|
|
#BPMCHANGE 200
|
|
3,
|
|
,
|
|
,
|
|
3
|
|
#GOGOSTART
|
|
300,
|
|
1011,
|
|
1010,
|
|
1011,
|
|
1010,
|
|
1110,
|
|
1010,
|
|
1,
|
|
2220,
|
|
2220,
|
|
2020,
|
|
2,
|
|
2220,
|
|
2220,
|
|
7,
|
|
#GOGOEND
|
|
8,
|
|
3
|
|
#GOGOSTART
|
|
110,
|
|
1110,
|
|
1110,
|
|
1110,
|
|
2020,
|
|
2220,
|
|
2020,
|
|
2220,
|
|
#MEASURE 8/4
|
|
#GOGOEND
|
|
40,
|
|
#MEASURE 4/4
|
|
#BPMCHANGE 150
|
|
1010,
|
|
1,
|
|
1010,
|
|
1,
|
|
1010,
|
|
1,
|
|
1010,
|
|
1010,
|
|
5,
|
|
00008006,
|
|
#MEASURE 8/4
|
|
#BPMCHANGE 400
|
|
00,
|
|
,
|
|
80,
|
|
#END
|
|
|
|
COURSE:Normal
|
|
LEVEL:7
|
|
BALLOON:4
|
|
SCOREINIT:
|
|
SCOREDIFF:
|
|
NOTESDESIGNER1:Colin
|
|
|
|
#START
|
|
,
|
|
,
|
|
,
|
|
,
|
|
2020,
|
|
20222000,
|
|
2020,
|
|
20222000,
|
|
1010,
|
|
10111010,
|
|
1010,
|
|
1110,
|
|
10001011,
|
|
1110,
|
|
1010,
|
|
,
|
|
2220,
|
|
20222000,
|
|
2220,
|
|
20222000,
|
|
2220,
|
|
20222000,
|
|
2220,
|
|
2020,
|
|
1010,
|
|
1110,
|
|
1010,
|
|
1110,
|
|
1010,
|
|
1111,
|
|
1010,
|
|
1110,
|
|
1010,
|
|
1111,
|
|
1010,
|
|
1,
|
|
2220,
|
|
20222000,
|
|
2220,
|
|
20222000,
|
|
2220,
|
|
20222000,
|
|
2220,
|
|
2220,
|
|
#MEASURE 16/4
|
|
3000,
|
|
#MEASURE 4/4
|
|
#BPMCHANGE 150
|
|
3010,
|
|
1013,
|
|
3010,
|
|
3013,
|
|
3022,
|
|
2220,
|
|
2220,
|
|
2220,
|
|
2220,
|
|
2220,
|
|
2220,
|
|
2020,
|
|
5,
|
|
#BPMCHANGE 160
|
|
0,
|
|
#BPMCHANGE 170
|
|
8,
|
|
#BPMCHANGE 180
|
|
3,
|
|
#BPMCHANGE 185
|
|
3030,
|
|
#BPMCHANGE 190
|
|
3030,
|
|
#BPMCHANGE 195
|
|
3030,
|
|
#BPMCHANGE 200
|
|
3,
|
|
,
|
|
,
|
|
3
|
|
#GOGOSTART
|
|
300,
|
|
10111010,
|
|
1010,
|
|
10111010,
|
|
1010,
|
|
10101011,
|
|
1010,
|
|
1,
|
|
20202022,
|
|
2220,
|
|
20202022,
|
|
2220,
|
|
2220,
|
|
2220,
|
|
7,
|
|
#GOGOEND
|
|
8,
|
|
30
|
|
#GOGOSTART
|
|
101011,
|
|
1110,
|
|
10101011,
|
|
1110,
|
|
20202022,
|
|
2220,
|
|
2220,
|
|
2222,
|
|
#MEASURE 8/4
|
|
#GOGOEND
|
|
40,
|
|
#MEASURE 4/4
|
|
#BPMCHANGE 150
|
|
1011,
|
|
1010,
|
|
1011,
|
|
1010,
|
|
1110,
|
|
1010,
|
|
1110,
|
|
1011,
|
|
5,
|
|
00008006,
|
|
#MEASURE 8/4
|
|
#BPMCHANGE 400
|
|
00,
|
|
,
|
|
80,
|
|
#END
|
|
|
|
COURSE:Hard
|
|
LEVEL:7
|
|
SCOREINIT:
|
|
SCOREDIFF:
|
|
NOTESDESIGNER2:Colin
|
|
|
|
#START
|
|
22101011,
|
|
22211000,
|
|
22111022,
|
|
2220201010000000,
|
|
10102011,
|
|
10112210,
|
|
22222222,
|
|
2220222040404000,
|
|
10112011,
|
|
1000100020102011,
|
|
10112101,
|
|
10102120,
|
|
10112121,
|
|
20112020,
|
|
10112022,
|
|
,
|
|
30121210,
|
|
10121210,
|
|
10121210,
|
|
10111010,
|
|
10121210,
|
|
10121210,
|
|
11101110,
|
|
1020202220202000,
|
|
1210,
|
|
1210,
|
|
12101210,
|
|
1011101110000000,
|
|
3140,
|
|
100102200200,
|
|
1120,
|
|
1122,
|
|
1020,
|
|
1120,
|
|
10102121,
|
|
,
|
|
11201120,
|
|
1011101010002000,
|
|
11201120,
|
|
1212,
|
|
11201120,
|
|
1011101010002000,
|
|
11201120,
|
|
1212,
|
|
#MEASURE 16/4
|
|
4000,
|
|
#MEASURE 4/4
|
|
#BPMCHANGE 150
|
|
4000002220202020,
|
|
1000001110101000,
|
|
3000002220202020,
|
|
3003,
|
|
3212,
|
|
111100100000,
|
|
222202200200,
|
|
111100100000,
|
|
1121,
|
|
111101100000,
|
|
1110,
|
|
2220,
|
|
3030,
|
|
#BPMCHANGE 160
|
|
3030,
|
|
#BPMCHANGE 170
|
|
3030,
|
|
#BPMCHANGE 180
|
|
3033,
|
|
#BPMCHANGE 185
|
|
3030,
|
|
#BPMCHANGE 190
|
|
3030,
|
|
#BPMCHANGE 195
|
|
3333,
|
|
#BPMCHANGE 200
|
|
3030,
|
|
4,
|
|
,
|
|
1000
|
|
#GOGOSTART
|
|
202220201020,
|
|
1000001110201020,
|
|
1000002220222000,
|
|
11102120,
|
|
1010201110102000,
|
|
2000001110102020,
|
|
10012222,
|
|
10201120,
|
|
4444,
|
|
4444,
|
|
4444,
|
|
4444,
|
|
11101110,
|
|
11101110,
|
|
1011101010111010,
|
|
#GOGOEND
|
|
0,
|
|
1000
|
|
#GOGOSTART
|
|
200010111010,
|
|
1000001020020020,
|
|
1000001110222010,
|
|
2000101020001022,
|
|
2000002010111011,
|
|
10112012,
|
|
1000101110222022,
|
|
2222,
|
|
#MEASURE 8/4
|
|
#GOGOEND
|
|
40,
|
|
#MEASURE 4/4
|
|
#BPMCHANGE 150
|
|
1020,
|
|
1120,
|
|
1020,
|
|
1120,
|
|
1020,
|
|
1120,
|
|
1020,
|
|
1120,
|
|
5,
|
|
0080,
|
|
#MEASURE 8/4
|
|
#BPMCHANGE 400
|
|
60,
|
|
,
|
|
80,
|
|
#END
|
|
|
|
COURSE:Oni
|
|
LEVEL:10
|
|
SCOREINIT:
|
|
SCOREDIFF:
|
|
NOTESDESIGNER3:Colin
|
|
|
|
#START
|
|
22101011,
|
|
100200200200100000000111,
|
|
12121011,
|
|
2220102010201010,
|
|
2010201120102022,
|
|
1010201120201011,
|
|
2010201120201011,
|
|
2222222210201020,
|
|
1000101020111010,
|
|
2020101020112011,
|
|
2010201120102011,
|
|
1020101120102011,
|
|
1010101120102010,
|
|
2011201020111010,
|
|
1012201020102010,
|
|
0000100020221020,
|
|
1022102010221020,
|
|
1020112012021020,
|
|
1022102010221020,
|
|
1020112012021020,
|
|
1022102010221020,
|
|
1020112012021020,
|
|
1010101110101010,
|
|
1010201212102011,
|
|
20212121,
|
|
21212121,
|
|
22222222,
|
|
2222222210201000,
|
|
302101222201,
|
|
201101221201,
|
|
101101201201,
|
|
101101201100,
|
|
111002121001,
|
|
100010100010200010200100,
|
|
2010201120102011,
|
|
2000200020221111,
|
|
2011201110112222,
|
|
1122102011201211,
|
|
1011112221201211,
|
|
1010202210111010,
|
|
1012101110112222,
|
|
1012111010112010,
|
|
1011201020111011,
|
|
1111111111111111,
|
|
#MEASURE 16/4
|
|
2000,
|
|
#MEASURE 4/4
|
|
#BPMCHANGE 150
|
|
3000002220201022,
|
|
1000001110111020,
|
|
1000001110111011,
|
|
2000001120112010,
|
|
222112112111,
|
|
211211121221,
|
|
222111222111,
|
|
201010202020102020102222,
|
|
122111222112,
|
|
112211221221,
|
|
222111222121,
|
|
101020102020101010102222,
|
|
101111222111,
|
|
#BPMCHANGE 160
|
|
201211222121,
|
|
#BPMCHANGE 170
|
|
212211222121,
|
|
#BPMCHANGE 180
|
|
211211222111,
|
|
#BPMCHANGE 185
|
|
201211222122,
|
|
#BPMCHANGE 190
|
|
111211211221,
|
|
#BPMCHANGE 195
|
|
122122122122,
|
|
#BPMCHANGE 200
|
|
1111111111111111,
|
|
2000001110222022,
|
|
100000100100100000202020200000202020100000200000,
|
|
3000
|
|
#GOGOSTART
|
|
401120201022,
|
|
1020101212122012,
|
|
1010201120112011,
|
|
2012101120112121,
|
|
2010201120102011,
|
|
2010201212112021,
|
|
2010201120112011,
|
|
200200100100200200100100200000101010200000100000,
|
|
4010201120102010,
|
|
4010201120102010,
|
|
4010201120102010,
|
|
4010201122221020,
|
|
33333333,
|
|
33333333,
|
|
100100100100100100100100100100100100202020202020,
|
|
#GOGOEND
|
|
200000200200200200101010200000200100000100200000,
|
|
3000
|
|
#GOGOSTART
|
|
402210221011,
|
|
2010201120120120,
|
|
1011202120212021,
|
|
2011221120221122,
|
|
1020101120221021,
|
|
1020112120120120,
|
|
1010101110112011,
|
|
2222222222222222,
|
|
#MEASURE 8/4
|
|
#GOGOEND
|
|
20,
|
|
#MEASURE 4/4
|
|
#BPMCHANGE 150
|
|
122122122111,
|
|
221211221221,
|
|
222111221212,
|
|
102020102020102020102222,
|
|
111101222201,
|
|
211201221222,
|
|
222112111211,
|
|
202020102020101020102222,
|
|
1,
|
|
,
|
|
#MEASURE 8/4
|
|
#BPMCHANGE 400
|
|
3333333333333333,
|
|
303030300300300300300300300300300300303030303030,
|
|
40,
|
|
#END
|