generated from DragonRatTiger/Custom-Charts
332 lines
3.5 KiB
Plaintext
332 lines
3.5 KiB
Plaintext
TITLE:Rumination thinking
|
|
SUBTITLE:--rerulili feat. Hime Meika
|
|
TITLEJA:反芻シ考
|
|
SUBTITLEJA:れるりり feat. 鳴花ヒメ
|
|
PREIMAGE:Rumination thinking.jpg
|
|
BGMOVIE:Rumination thinking.mp4
|
|
WAVE:Rumination thinking.ogg
|
|
BPM:125
|
|
OFFSET:-0.182
|
|
DEMOSTART:53.942
|
|
GENRE:ボーカロイド
|
|
MAKER:Colin
|
|
|
|
COURSE:Easy
|
|
LEVEL:2
|
|
SCOREINIT:
|
|
SCOREDIFF:
|
|
NOTESDESIGNER0:Colin
|
|
|
|
#START
|
|
,
|
|
,
|
|
,
|
|
,
|
|
#GOGOSTART
|
|
1010,
|
|
1110,
|
|
1010,
|
|
1,
|
|
2020,
|
|
2220,
|
|
2020,
|
|
2000000
|
|
#GOGOEND
|
|
000000000,
|
|
1,
|
|
1,
|
|
1,
|
|
1,
|
|
2020,
|
|
2,
|
|
2020,
|
|
2,
|
|
5080,
|
|
1,
|
|
1,
|
|
1,
|
|
2,
|
|
20000500,
|
|
0080,
|
|
,
|
|
#GOGOSTART
|
|
6080,
|
|
1,
|
|
1010,
|
|
1110,
|
|
6080,
|
|
2020,
|
|
2020,
|
|
2000000000000005,
|
|
#GOGOEND
|
|
0,
|
|
8,
|
|
,
|
|
,
|
|
1010,
|
|
1,
|
|
2020,
|
|
4040,
|
|
6
|
|
#GOGOSTART
|
|
080,
|
|
1,
|
|
1010,
|
|
1110,
|
|
6080,
|
|
2020,
|
|
2020,
|
|
2000000000000005,
|
|
,
|
|
8,
|
|
1010,
|
|
1,
|
|
2020,
|
|
2,
|
|
1010,
|
|
1000000
|
|
#GOGOEND
|
|
300000000,
|
|
#END
|
|
|
|
COURSE:Normal
|
|
LEVEL:3
|
|
SCOREINIT:
|
|
SCOREDIFF:
|
|
NOTESDESIGNER1:Colin
|
|
|
|
#START
|
|
,
|
|
,
|
|
,
|
|
,
|
|
#GOGOSTART
|
|
10001011,
|
|
1110,
|
|
10001011,
|
|
1110,
|
|
20002022,
|
|
2220,
|
|
2020,
|
|
2000200
|
|
#GOGOEND
|
|
000000000,
|
|
1010,
|
|
1011,
|
|
1,
|
|
1,
|
|
2022,
|
|
2020,
|
|
2020,
|
|
2220,
|
|
5080,
|
|
1011,
|
|
1010,
|
|
1,
|
|
20002022,
|
|
20002500,
|
|
0080,
|
|
3,
|
|
#GOGOSTART
|
|
6080,
|
|
10111000,
|
|
1110,
|
|
10101110,
|
|
6080,
|
|
20222000,
|
|
2220,
|
|
2000000020002005,
|
|
#GOGOEND
|
|
0,
|
|
8,
|
|
,
|
|
,
|
|
10001011,
|
|
1,
|
|
20222020,
|
|
4040,
|
|
6
|
|
#GOGOSTART
|
|
080,
|
|
1110,
|
|
10111010,
|
|
1110,
|
|
6080,
|
|
20222000,
|
|
2220,
|
|
2000000020002005,
|
|
,
|
|
8,
|
|
10001011,
|
|
1110,
|
|
20002022,
|
|
2220,
|
|
10001011,
|
|
1000100
|
|
#GOGOEND
|
|
300000000,
|
|
#END
|
|
|
|
COURSE:Hard
|
|
LEVEL:3
|
|
SCOREINIT:
|
|
SCOREDIFF:
|
|
NOTESDESIGNER2:Colin
|
|
|
|
#START
|
|
1000200100000000,
|
|
1000200100000000,
|
|
1000200100000000,
|
|
1000200100000000,
|
|
#GOGOSTART
|
|
1000200100102000,
|
|
1000200100102000,
|
|
1000200100102000,
|
|
1000200100102000,
|
|
1000200100102000,
|
|
1002200110022000,
|
|
1000200100102000,
|
|
1000200
|
|
#GOGOEND
|
|
100000000,
|
|
1212,
|
|
1212,
|
|
1212,
|
|
1000200010000022,
|
|
2000200100102000,
|
|
1000200100102000,
|
|
1000200100102000,
|
|
1212,
|
|
5080,
|
|
10201122,
|
|
10201122,
|
|
1002001010010010,
|
|
10201120,
|
|
10201115,
|
|
0080,
|
|
4,
|
|
#GOGOSTART
|
|
6082,
|
|
1010202010010000,
|
|
12121110,
|
|
10201120,
|
|
6082,
|
|
1010202010010000,
|
|
5812,
|
|
11221010,
|
|
#GOGOEND
|
|
5,
|
|
8,
|
|
,
|
|
2222,
|
|
5,
|
|
8000200010002001,
|
|
01201020,
|
|
3434,
|
|
6
|
|
#GOGOSTART
|
|
082,
|
|
1010202010010000,
|
|
12121110,
|
|
10201120,
|
|
6082,
|
|
1010202010010000,
|
|
5812,
|
|
11221010,
|
|
6,
|
|
8212,
|
|
5080,
|
|
1000200100102000,
|
|
1000200100102000,
|
|
1000200100102000,
|
|
1000200100102000,
|
|
1000200
|
|
#GOGOEND
|
|
300000000,
|
|
#END
|
|
|
|
COURSE:Oni
|
|
LEVEL:8
|
|
SCOREINIT:
|
|
SCOREDIFF:
|
|
NOTESDESIGNER3:Colin
|
|
|
|
#START
|
|
1221112100000000,
|
|
1120112100000000,
|
|
1220112100000000,
|
|
1121112100000000,
|
|
#GOGOSTART
|
|
1122122101102012,
|
|
1122122101102022,
|
|
1122122101102012,
|
|
1122122101102022,
|
|
1122122101102012,
|
|
1012101210121012,
|
|
1122122101102012,
|
|
1122122
|
|
#GOGOEND
|
|
100000000,
|
|
2112112101202201,
|
|
2121120202102000,
|
|
2120211222200221,
|
|
2120211200002012,
|
|
2111222101202202,
|
|
1022112202102022,
|
|
1022102101102121,
|
|
2012101210121022,
|
|
1010201110222010,
|
|
2012012020102010,
|
|
2012012010112010,
|
|
1012012010112020,
|
|
2012010102102010,
|
|
2012211020112012,
|
|
1011201210102010,
|
|
2000200020221120,
|
|
#GOGOSTART
|
|
#SCROLL 2
|
|
6000
|
|
#SCROLL 1
|
|
008021220120,
|
|
1020201022022012,
|
|
1022122220212012,
|
|
1020202210112020,
|
|
1101202021020120,
|
|
1011202021022012,
|
|
1020212110210210,
|
|
1011202011122221,
|
|
#GOGOEND
|
|
1000201010002001,
|
|
0000201010002001,
|
|
0000201010002001,
|
|
00201022,
|
|
1010201210112012,
|
|
0110201010112021,
|
|
0012101211012012,
|
|
2020202012221222,
|
|
#SCROLL 79.992
|
|
6000000000000008
|
|
#GOGOSTART
|
|
#SCROLL 2
|
|
4000
|
|
#SCROLL 1
|
|
00000000000020001000200020000000100020000000,
|
|
1020201012022011,
|
|
2012122220201202,
|
|
1020202210112022,
|
|
1101202021020120,
|
|
1011202021022012,
|
|
2010120211210110,
|
|
10002020100020002022202020202010,
|
|
1010202102102012,
|
|
1012101210121012,
|
|
1122122101102012,
|
|
1122122101102022,
|
|
1122122101102012,
|
|
1122122101012012,
|
|
10100010200010001010201110201020,
|
|
10102011102020
|
|
#GOGOEND
|
|
100000000000000000,
|
|
#END
|