generated from DragonRatTiger/Custom-Charts
1200 lines
9.8 KiB
Plaintext
1200 lines
9.8 KiB
Plaintext
TITLE:Senpai!
|
|
SUBTITLE:--OSTER project feat. Tsumugi Kusakabe
|
|
TITLEJA:せんぱい!
|
|
SUBTITLEJA:OSTER project feat. 春日部つむぎ
|
|
PREIMAGE:Senpai.png
|
|
BGMOVIE:Senpai.mp4
|
|
WAVE:Senpai.ogg
|
|
BPM:132
|
|
OFFSET:-0.001
|
|
DEMOSTART:50.682
|
|
MAKER:Colin
|
|
|
|
COURSE:Easy
|
|
LEVEL:2
|
|
BALLOON:8
|
|
SCOREINIT:
|
|
SCOREDIFF:
|
|
NOTESDESIGNER0:Colin
|
|
|
|
#START
|
|
,
|
|
#GOGOSTART
|
|
3010,
|
|
1110,
|
|
2020,
|
|
2220,
|
|
3010,
|
|
1110,
|
|
2020,
|
|
2220,
|
|
#GOGOEND
|
|
1,
|
|
,
|
|
1010,
|
|
1110,
|
|
2020,
|
|
2220,
|
|
1010,
|
|
5008,
|
|
2020,
|
|
2220,
|
|
2020,
|
|
2220,
|
|
1010,
|
|
1110,
|
|
2020,
|
|
5,
|
|
0008,
|
|
,
|
|
,
|
|
#GOGOSTART
|
|
3010,
|
|
3010,
|
|
3030,
|
|
3330,
|
|
3010,
|
|
3,
|
|
2020,
|
|
2222,
|
|
2,
|
|
,
|
|
1000000
|
|
#GOGOEND
|
|
000000000,
|
|
#GOGOSTART
|
|
1010,
|
|
1,
|
|
1010,
|
|
1110,
|
|
2,
|
|
#GOGOEND
|
|
9,
|
|
,
|
|
8,
|
|
#GOGOSTART
|
|
3010,
|
|
3010,
|
|
3030,
|
|
3330,
|
|
3010,
|
|
3,
|
|
2020,
|
|
2222,
|
|
2,
|
|
,
|
|
1010,
|
|
1,
|
|
1010,
|
|
1,
|
|
#MEASURE 1/64
|
|
3,
|
|
#BARLINEOFF
|
|
,
|
|
,
|
|
,
|
|
,
|
|
,
|
|
,
|
|
,
|
|
,
|
|
,
|
|
,
|
|
,
|
|
,
|
|
,
|
|
,
|
|
,
|
|
,
|
|
,
|
|
,
|
|
,
|
|
,
|
|
,
|
|
,
|
|
,
|
|
,
|
|
,
|
|
,
|
|
,
|
|
#GOGOEND
|
|
#SCROLL 1
|
|
0
|
|
#BARLINEON
|
|
00,
|
|
#SCROLL 6.91176
|
|
,
|
|
#SCROLL 6.82353
|
|
,
|
|
#SCROLL 6.73529
|
|
,
|
|
#SCROLL 6.64706
|
|
,
|
|
#SCROLL 6.55882
|
|
,
|
|
#SCROLL 6.47059
|
|
,
|
|
#SCROLL 6.38235
|
|
,
|
|
#SCROLL 6.29412
|
|
,
|
|
#SCROLL 6.20588
|
|
,
|
|
#SCROLL 6.11765
|
|
,
|
|
#SCROLL 6.02941
|
|
,
|
|
#SCROLL 5.94118
|
|
,
|
|
#SCROLL 5.85294
|
|
,
|
|
#SCROLL 5.76471
|
|
,
|
|
#SCROLL 5.67647
|
|
,
|
|
#SCROLL 5.58824
|
|
,
|
|
#SCROLL 5.5
|
|
,
|
|
#SCROLL 5.41176
|
|
,
|
|
#SCROLL 5.32353
|
|
,
|
|
#SCROLL 5.23529
|
|
,
|
|
#SCROLL 5.14706
|
|
,
|
|
#SCROLL 5.05882
|
|
,
|
|
#SCROLL 4.97059
|
|
,
|
|
#SCROLL 4.88235
|
|
,
|
|
#SCROLL 4.79412
|
|
,
|
|
#SCROLL 4.70588
|
|
,
|
|
#SCROLL 4.61765
|
|
,
|
|
#SCROLL 4.52941
|
|
,
|
|
#SCROLL 4.44118
|
|
,
|
|
#SCROLL 4.35294
|
|
,
|
|
#SCROLL 4.26471
|
|
,
|
|
#SCROLL 4.17647
|
|
,
|
|
#SCROLL 4.08824
|
|
,
|
|
#SCROLL 4
|
|
,
|
|
#SCROLL 3.91176
|
|
,
|
|
#SCROLL 3.82353
|
|
,
|
|
#SCROLL 3.73529
|
|
,
|
|
#SCROLL 3.64706
|
|
,
|
|
#SCROLL 3.55882
|
|
,
|
|
#SCROLL 3.47059
|
|
,
|
|
#SCROLL 3.38235
|
|
,
|
|
#SCROLL 3.29412
|
|
,
|
|
#SCROLL 3.20588
|
|
,
|
|
#SCROLL 3.11765
|
|
,
|
|
#SCROLL 3.02941
|
|
,
|
|
#SCROLL 2.94118
|
|
,
|
|
#SCROLL 2.85294
|
|
,
|
|
#SCROLL 2.76471
|
|
,
|
|
#SCROLL 2.67647
|
|
,
|
|
#SCROLL 2.58824
|
|
,
|
|
#SCROLL 2.5
|
|
,
|
|
#SCROLL 2.41176
|
|
,
|
|
#SCROLL 2.32353
|
|
,
|
|
#SCROLL 2.23529
|
|
,
|
|
#SCROLL 2.14706
|
|
,
|
|
#SCROLL 2.05882
|
|
,
|
|
#SCROLL 1.97059
|
|
,
|
|
#SCROLL 1.88235
|
|
,
|
|
#SCROLL 1.79412
|
|
,
|
|
#SCROLL 1.70588
|
|
,
|
|
#SCROLL 1.61765
|
|
,
|
|
#SCROLL 1.52941
|
|
,
|
|
#SCROLL 1.44118
|
|
,
|
|
#SCROLL 1.35294
|
|
,
|
|
#SCROLL 1.26471
|
|
,
|
|
#SCROLL 1.17647
|
|
,
|
|
#SCROLL 1.08824
|
|
,
|
|
#BARLINEOFF
|
|
#SCROLL 1
|
|
,
|
|
,
|
|
,
|
|
,
|
|
,
|
|
,
|
|
,
|
|
,
|
|
,
|
|
,
|
|
,
|
|
,
|
|
,
|
|
,
|
|
,
|
|
,
|
|
,
|
|
,
|
|
,
|
|
,
|
|
,
|
|
,
|
|
,
|
|
,
|
|
,
|
|
,
|
|
,
|
|
,
|
|
,
|
|
,
|
|
,
|
|
,
|
|
#MEASURE 4/4
|
|
#GOGOSTART
|
|
#BARLINEON
|
|
3010,
|
|
1110,
|
|
2020,
|
|
2220,
|
|
1010,
|
|
1110,
|
|
2020,
|
|
2020200
|
|
#GOGOEND
|
|
0,
|
|
#END
|
|
|
|
COURSE:Normal
|
|
LEVEL:3
|
|
BALLOON:8
|
|
SCOREINIT:
|
|
SCOREDIFF:
|
|
NOTESDESIGNER1:Colin
|
|
|
|
#START
|
|
,
|
|
#GOGOSTART
|
|
3010,
|
|
10111000,
|
|
2020,
|
|
20222000,
|
|
3010,
|
|
10111000,
|
|
2020,
|
|
2220,
|
|
#GOGOEND
|
|
1,
|
|
1010,
|
|
1010,
|
|
1110,
|
|
20002022,
|
|
2220,
|
|
10001011,
|
|
5008,
|
|
2022,
|
|
20222000,
|
|
2020,
|
|
2220,
|
|
10001011,
|
|
1110,
|
|
20002022,
|
|
5,
|
|
0008,
|
|
,
|
|
,
|
|
#GOGOSTART
|
|
30101110,
|
|
30101110,
|
|
3030,
|
|
3330,
|
|
30101110,
|
|
30101110,
|
|
2020,
|
|
20222020,
|
|
2020,
|
|
2220,
|
|
1000000
|
|
#GOGOEND
|
|
000000000,
|
|
#GOGOSTART
|
|
10001011,
|
|
1110,
|
|
1010,
|
|
10111000,
|
|
2022,
|
|
#GOGOEND
|
|
9,
|
|
,
|
|
8,
|
|
#GOGOSTART
|
|
30101110,
|
|
3111,
|
|
3030,
|
|
3330,
|
|
30101110,
|
|
3110,
|
|
2020,
|
|
20202220,
|
|
2020,
|
|
2220,
|
|
1011,
|
|
1010,
|
|
10001011,
|
|
1110,
|
|
#MEASURE 1/64
|
|
3,
|
|
#BARLINEOFF
|
|
,
|
|
,
|
|
,
|
|
,
|
|
,
|
|
,
|
|
,
|
|
,
|
|
,
|
|
,
|
|
,
|
|
,
|
|
,
|
|
,
|
|
,
|
|
,
|
|
,
|
|
,
|
|
,
|
|
,
|
|
,
|
|
,
|
|
,
|
|
,
|
|
,
|
|
,
|
|
,
|
|
#GOGOEND
|
|
#SCROLL 1
|
|
0
|
|
#BARLINEON
|
|
00,
|
|
#SCROLL 6.91176
|
|
,
|
|
#SCROLL 6.82353
|
|
,
|
|
#SCROLL 6.73529
|
|
,
|
|
#SCROLL 6.64706
|
|
,
|
|
#SCROLL 6.55882
|
|
,
|
|
#SCROLL 6.47059
|
|
,
|
|
#SCROLL 6.38235
|
|
,
|
|
#SCROLL 6.29412
|
|
,
|
|
#SCROLL 6.20588
|
|
,
|
|
#SCROLL 6.11765
|
|
,
|
|
#SCROLL 6.02941
|
|
,
|
|
#SCROLL 5.94118
|
|
,
|
|
#SCROLL 5.85294
|
|
,
|
|
#SCROLL 5.76471
|
|
,
|
|
#SCROLL 5.67647
|
|
,
|
|
#SCROLL 5.58824
|
|
,
|
|
#SCROLL 5.5
|
|
,
|
|
#SCROLL 5.41176
|
|
,
|
|
#SCROLL 5.32353
|
|
,
|
|
#SCROLL 5.23529
|
|
,
|
|
#SCROLL 5.14706
|
|
,
|
|
#SCROLL 5.05882
|
|
,
|
|
#SCROLL 4.97059
|
|
,
|
|
#SCROLL 4.88235
|
|
,
|
|
#SCROLL 4.79412
|
|
,
|
|
#SCROLL 4.70588
|
|
,
|
|
#SCROLL 4.61765
|
|
,
|
|
#SCROLL 4.52941
|
|
,
|
|
#SCROLL 4.44118
|
|
,
|
|
#SCROLL 4.35294
|
|
,
|
|
#SCROLL 4.26471
|
|
,
|
|
#SCROLL 4.17647
|
|
,
|
|
#SCROLL 4.08824
|
|
,
|
|
#SCROLL 4
|
|
,
|
|
#SCROLL 3.91176
|
|
,
|
|
#SCROLL 3.82353
|
|
,
|
|
#SCROLL 3.73529
|
|
,
|
|
#SCROLL 3.64706
|
|
,
|
|
#SCROLL 3.55882
|
|
,
|
|
#SCROLL 3.47059
|
|
,
|
|
#SCROLL 3.38235
|
|
,
|
|
#SCROLL 3.29412
|
|
,
|
|
#SCROLL 3.20588
|
|
,
|
|
#SCROLL 3.11765
|
|
,
|
|
#SCROLL 3.02941
|
|
,
|
|
#SCROLL 2.94118
|
|
,
|
|
#SCROLL 2.85294
|
|
,
|
|
#SCROLL 2.76471
|
|
,
|
|
#SCROLL 2.67647
|
|
,
|
|
#SCROLL 2.58824
|
|
,
|
|
#SCROLL 2.5
|
|
,
|
|
#SCROLL 2.41176
|
|
,
|
|
#SCROLL 2.32353
|
|
,
|
|
#SCROLL 2.23529
|
|
,
|
|
#SCROLL 2.14706
|
|
,
|
|
#SCROLL 2.05882
|
|
,
|
|
#SCROLL 1.97059
|
|
,
|
|
#SCROLL 1.88235
|
|
,
|
|
#SCROLL 1.79412
|
|
,
|
|
#SCROLL 1.70588
|
|
,
|
|
#SCROLL 1.61765
|
|
,
|
|
#SCROLL 1.52941
|
|
,
|
|
#SCROLL 1.44118
|
|
,
|
|
#SCROLL 1.35294
|
|
,
|
|
#SCROLL 1.26471
|
|
,
|
|
#SCROLL 1.17647
|
|
,
|
|
#SCROLL 1.08824
|
|
,
|
|
#BARLINEOFF
|
|
#SCROLL 1
|
|
,
|
|
,
|
|
,
|
|
,
|
|
,
|
|
,
|
|
,
|
|
,
|
|
,
|
|
,
|
|
,
|
|
,
|
|
,
|
|
,
|
|
,
|
|
,
|
|
,
|
|
,
|
|
,
|
|
,
|
|
,
|
|
,
|
|
,
|
|
,
|
|
,
|
|
,
|
|
,
|
|
,
|
|
,
|
|
,
|
|
,
|
|
,
|
|
#MEASURE 4/4
|
|
#GOGOSTART
|
|
#BARLINEON
|
|
3110,
|
|
10111000,
|
|
2220,
|
|
20222000,
|
|
1110,
|
|
10111000,
|
|
2220,
|
|
2022200
|
|
#GOGOEND
|
|
0,
|
|
#END
|
|
|
|
COURSE:Hard
|
|
LEVEL:4
|
|
SCOREINIT:
|
|
SCOREDIFF:
|
|
NOTESDESIGNER2:Colin
|
|
|
|
#START
|
|
,
|
|
#GOGOSTART
|
|
3000200110102000,
|
|
10201121,
|
|
10201120,
|
|
11211121,
|
|
1000200110102000,
|
|
10201121,
|
|
10201120,
|
|
4004040400000400,
|
|
#GOGOEND
|
|
3202,
|
|
0202,
|
|
1010200110002003,
|
|
0030300300004000,
|
|
30201120,
|
|
10201021,
|
|
1000200010102022,
|
|
0010200100102000,
|
|
10201120,
|
|
10201120,
|
|
10210120,
|
|
1000200030030303,
|
|
04301120,
|
|
2002001000101010,
|
|
1000200010002005,
|
|
,
|
|
0008,
|
|
22222222,
|
|
20212004,
|
|
#GOGOSTART
|
|
3000111010010040,
|
|
3000100010011040,
|
|
30043004,
|
|
30303034,
|
|
3010200020020040,
|
|
3000200020020030,
|
|
30044004,
|
|
4444,
|
|
3000200110102000,
|
|
10201120,
|
|
3003030
|
|
#GOGOEND
|
|
300000000,
|
|
#GOGOSTART
|
|
3010202200102000,
|
|
1010200202201020,
|
|
10201120,
|
|
12021120,
|
|
1212,
|
|
#GOGOEND
|
|
3003003003003003,
|
|
0030030030303000,
|
|
40212004,
|
|
#GOGOSTART
|
|
3000111010010040,
|
|
3000100010111040,
|
|
30043004,
|
|
30303034,
|
|
3010200020020040,
|
|
3000200020020030,
|
|
30044004,
|
|
4444,
|
|
3000200110102000,
|
|
10201120,
|
|
1001010100111020,
|
|
1212,
|
|
10201120,
|
|
10201122,
|
|
#MEASURE 1/64
|
|
3,
|
|
#BARLINEOFF
|
|
,
|
|
,
|
|
,
|
|
,
|
|
,
|
|
,
|
|
,
|
|
,
|
|
,
|
|
,
|
|
,
|
|
3,
|
|
,
|
|
,
|
|
,
|
|
,
|
|
,
|
|
,
|
|
,
|
|
3,
|
|
,
|
|
,
|
|
,
|
|
,
|
|
,
|
|
,
|
|
,
|
|
#GOGOEND
|
|
#SCROLL 1
|
|
3
|
|
#BARLINEON
|
|
00,
|
|
#SCROLL 6.91176
|
|
,
|
|
#SCROLL 6.82353
|
|
,
|
|
#SCROLL 6.73529
|
|
,
|
|
#SCROLL 6.64706
|
|
,
|
|
#SCROLL 6.55882
|
|
,
|
|
#SCROLL 6.47059
|
|
,
|
|
#SCROLL 6.38235
|
|
,
|
|
#SCROLL 6.29412
|
|
,
|
|
#SCROLL 6.20588
|
|
,
|
|
#SCROLL 6.11765
|
|
,
|
|
#SCROLL 6.02941
|
|
,
|
|
#SCROLL 5.94118
|
|
,
|
|
#SCROLL 5.85294
|
|
,
|
|
#SCROLL 5.76471
|
|
,
|
|
#SCROLL 5.67647
|
|
,
|
|
#SCROLL 5.58824
|
|
,
|
|
#SCROLL 5.5
|
|
,
|
|
#SCROLL 5.41176
|
|
,
|
|
#SCROLL 5.32353
|
|
,
|
|
#SCROLL 5.23529
|
|
,
|
|
#SCROLL 5.14706
|
|
,
|
|
#SCROLL 5.05882
|
|
,
|
|
#SCROLL 4.97059
|
|
,
|
|
#SCROLL 4.88235
|
|
,
|
|
#SCROLL 4.79412
|
|
,
|
|
#SCROLL 4.70588
|
|
,
|
|
#SCROLL 4.61765
|
|
,
|
|
#SCROLL 4.52941
|
|
,
|
|
#SCROLL 4.44118
|
|
,
|
|
#SCROLL 4.35294
|
|
,
|
|
#SCROLL 4.26471
|
|
,
|
|
#SCROLL 4.17647
|
|
,
|
|
#SCROLL 4.08824
|
|
,
|
|
#SCROLL 4
|
|
,
|
|
#SCROLL 3.91176
|
|
,
|
|
#SCROLL 3.82353
|
|
,
|
|
#SCROLL 3.73529
|
|
,
|
|
#SCROLL 3.64706
|
|
,
|
|
#SCROLL 3.55882
|
|
,
|
|
#SCROLL 3.47059
|
|
,
|
|
#SCROLL 3.38235
|
|
,
|
|
#SCROLL 3.29412
|
|
,
|
|
#SCROLL 3.20588
|
|
,
|
|
#SCROLL 3.11765
|
|
,
|
|
#SCROLL 3.02941
|
|
,
|
|
#SCROLL 2.94118
|
|
,
|
|
#SCROLL 2.85294
|
|
,
|
|
#SCROLL 2.76471
|
|
,
|
|
#SCROLL 2.67647
|
|
,
|
|
#SCROLL 2.58824
|
|
,
|
|
#SCROLL 2.5
|
|
,
|
|
#SCROLL 2.41176
|
|
,
|
|
#SCROLL 2.32353
|
|
,
|
|
#SCROLL 2.23529
|
|
,
|
|
#SCROLL 2.14706
|
|
,
|
|
#SCROLL 2.05882
|
|
,
|
|
#SCROLL 1.97059
|
|
,
|
|
#SCROLL 1.88235
|
|
,
|
|
#SCROLL 1.79412
|
|
,
|
|
#SCROLL 1.70588
|
|
,
|
|
#SCROLL 1.61765
|
|
,
|
|
#SCROLL 1.52941
|
|
,
|
|
#SCROLL 1.44118
|
|
,
|
|
#SCROLL 1.35294
|
|
,
|
|
#SCROLL 1.26471
|
|
,
|
|
#SCROLL 1.17647
|
|
,
|
|
#SCROLL 1.08824
|
|
,
|
|
#BARLINEOFF
|
|
#SCROLL 1
|
|
,
|
|
,
|
|
,
|
|
,
|
|
,
|
|
,
|
|
,
|
|
,
|
|
,
|
|
,
|
|
,
|
|
,
|
|
,
|
|
,
|
|
,
|
|
,
|
|
,
|
|
,
|
|
,
|
|
,
|
|
,
|
|
,
|
|
,
|
|
,
|
|
,
|
|
,
|
|
,
|
|
,
|
|
,
|
|
,
|
|
,
|
|
,
|
|
#MEASURE 4/4
|
|
#GOGOSTART
|
|
#BARLINEON
|
|
3000200110102000,
|
|
10201121,
|
|
10201120,
|
|
11211121,
|
|
1000200110102000,
|
|
10201121,
|
|
10201120,
|
|
40040404000000
|
|
#GOGOEND
|
|
00,
|
|
#END
|
|
|
|
COURSE:Oni
|
|
LEVEL:8
|
|
BALLOON:32
|
|
SCOREINIT:
|
|
SCOREDIFF:
|
|
NOTESDESIGNER3:Colin
|
|
|
|
#START
|
|
0000000022121120,
|
|
#GOGOSTART
|
|
300000100000202020100000200000200100000100200000,
|
|
202020100000200000100200100100200000100100200000,
|
|
100000200000202020100000200000200100000100200000,
|
|
202020100200200200100200100200100200200200100200,
|
|
100000100000202020100000200000200100000100200000,
|
|
202020100000200000100200100100200100100100200200,
|
|
100000200000202020100000200000200100000100200000,
|
|
2202020222221201,
|
|
#GOGOEND
|
|
1022010200222220,
|
|
2020201102202011,
|
|
2122121201102203,
|
|
0120120402220202,
|
|
1012020202101020,
|
|
1010112202112120,
|
|
1012010220202021,
|
|
000100200000100200200100000100202020200000000000,
|
|
1202020201202021,
|
|
1010201211201022,
|
|
2122022201201202,
|
|
1010201022220202,
|
|
0120220101202020,
|
|
2012011010112120,
|
|
2011220110102209,
|
|
,
|
|
0008,
|
|
2012222211112211,
|
|
20002012112040
|
|
#SCROLL 1.2
|
|
40,
|
|
#GOGOSTART
|
|
#SCROLL 1.3
|
|
3
|
|
#SCROLL 1
|
|
020212022210220,
|
|
3011022122021120,
|
|
32143211,
|
|
2202020202121220,
|
|
3010102222210120,
|
|
3010212121120210,
|
|
41244121,
|
|
2020220120104010,
|
|
3010201011202010,
|
|
1010102101202020,
|
|
2103040
|
|
#GOGOEND
|
|
400000000,
|
|
#GOGOSTART
|
|
3020202101201020,
|
|
2210210202101120,
|
|
2211201211221122,
|
|
2020221012112120,
|
|
2011221120122221,
|
|
#GOGOEND
|
|
2012012012012012,
|
|
0120120120202200,
|
|
40002012112040
|
|
#SCROLL 1.2
|
|
40,
|
|
#GOGOSTART
|
|
#SCROLL 1.3
|
|
3
|
|
#SCROLL 1
|
|
020122222210120,
|
|
3022221122021210,
|
|
32143211,
|
|
2101020212212220,
|
|
3010112212210120,
|
|
3010212121121121,
|
|
21244121,
|
|
2020220120104010,
|
|
3010201110102010,
|
|
1010102101202020,
|
|
2101020202120210,
|
|
2011201020120210,
|
|
42221212,
|
|
1022112200210120,
|
|
#MEASURE 1/64
|
|
2,
|
|
#BARLINEOFF
|
|
,
|
|
,
|
|
,
|
|
2,
|
|
,
|
|
,
|
|
,
|
|
,
|
|
,
|
|
,
|
|
,
|
|
3,
|
|
,
|
|
,
|
|
,
|
|
,
|
|
,
|
|
,
|
|
,
|
|
4,
|
|
,
|
|
,
|
|
,
|
|
,
|
|
,
|
|
,
|
|
,
|
|
#GOGOEND
|
|
#SCROLL 1
|
|
4
|
|
#BARLINEON
|
|
00,
|
|
#SCROLL 6.91176
|
|
,
|
|
#SCROLL 6.82353
|
|
,
|
|
#SCROLL 6.73529
|
|
,
|
|
#SCROLL 6.64706
|
|
,
|
|
#SCROLL 6.55882
|
|
,
|
|
#SCROLL 6.47059
|
|
,
|
|
#SCROLL 6.38235
|
|
,
|
|
#SCROLL 6.29412
|
|
,
|
|
#SCROLL 6.20588
|
|
,
|
|
#SCROLL 6.11765
|
|
,
|
|
#SCROLL 6.02941
|
|
,
|
|
#SCROLL 5.94118
|
|
,
|
|
#SCROLL 5.85294
|
|
,
|
|
#SCROLL 5.76471
|
|
,
|
|
#SCROLL 5.67647
|
|
,
|
|
#SCROLL 5.58824
|
|
,
|
|
#SCROLL 5.5
|
|
,
|
|
#SCROLL 5.41176
|
|
,
|
|
#SCROLL 5.32353
|
|
,
|
|
#SCROLL 5.23529
|
|
,
|
|
#SCROLL 5.14706
|
|
,
|
|
#SCROLL 5.05882
|
|
,
|
|
#SCROLL 4.97059
|
|
,
|
|
#SCROLL 4.88235
|
|
,
|
|
#SCROLL 4.79412
|
|
,
|
|
#SCROLL 4.70588
|
|
,
|
|
#SCROLL 4.61765
|
|
,
|
|
#SCROLL 4.52941
|
|
,
|
|
#SCROLL 4.44118
|
|
,
|
|
#SCROLL 4.35294
|
|
,
|
|
#SCROLL 4.26471
|
|
,
|
|
#SCROLL 4.17647
|
|
,
|
|
#SCROLL 4.08824
|
|
,
|
|
#SCROLL 4
|
|
,
|
|
#SCROLL 3.91176
|
|
,
|
|
#SCROLL 3.82353
|
|
,
|
|
#SCROLL 3.73529
|
|
,
|
|
#SCROLL 3.64706
|
|
,
|
|
#SCROLL 3.55882
|
|
,
|
|
#SCROLL 3.47059
|
|
,
|
|
#SCROLL 3.38235
|
|
,
|
|
#SCROLL 3.29412
|
|
,
|
|
#SCROLL 3.20588
|
|
,
|
|
#SCROLL 3.11765
|
|
,
|
|
#SCROLL 3.02941
|
|
,
|
|
#SCROLL 2.94118
|
|
,
|
|
#SCROLL 2.85294
|
|
,
|
|
#SCROLL 2.76471
|
|
,
|
|
#SCROLL 2.67647
|
|
,
|
|
#SCROLL 2.58824
|
|
,
|
|
#SCROLL 2.5
|
|
,
|
|
#SCROLL 2.41176
|
|
,
|
|
#SCROLL 2.32353
|
|
,
|
|
#SCROLL 2.23529
|
|
,
|
|
#SCROLL 2.14706
|
|
,
|
|
#SCROLL 2.05882
|
|
,
|
|
#SCROLL 1.97059
|
|
,
|
|
#SCROLL 1.88235
|
|
,
|
|
#SCROLL 1.79412
|
|
,
|
|
#SCROLL 1.70588
|
|
,
|
|
#SCROLL 1.61765
|
|
,
|
|
#SCROLL 1.52941
|
|
,
|
|
#SCROLL 1.44118
|
|
,
|
|
#SCROLL 1.35294
|
|
,
|
|
#SCROLL 1.26471
|
|
,
|
|
#SCROLL 1.17647
|
|
,
|
|
#SCROLL 1.08824
|
|
,
|
|
#BARLINEOFF
|
|
#SCROLL 1
|
|
2,
|
|
,
|
|
,
|
|
,
|
|
,
|
|
,
|
|
,
|
|
,
|
|
1,
|
|
,
|
|
,
|
|
,
|
|
,
|
|
010,
|
|
,
|
|
,
|
|
2,
|
|
,
|
|
,
|
|
,
|
|
,
|
|
020,
|
|
,
|
|
,
|
|
1,
|
|
,
|
|
,
|
|
,
|
|
,
|
|
,
|
|
,
|
|
,
|
|
#MEASURE 4/4
|
|
#GOGOSTART
|
|
#BARLINEON
|
|
300000100000202020100000200000200100000100200000,
|
|
202020100000200000100000200200100200100100200000,
|
|
1020101120210120,
|
|
202020100200200200100200100200100200200200100200,
|
|
100000100000202020100000200000200000200200100100,
|
|
1011220211211122,
|
|
100000200000202020100000200000200100000100200000,
|
|
20220202112011
|
|
#GOGOEND
|
|
20,
|
|
#END |