generated from DragonRatTiger/Custom-Charts
661 lines
7.5 KiB
Plaintext
661 lines
7.5 KiB
Plaintext
TITLE:Teratera
|
|
SUBTITLE:--WADATAKEAKI (Kurage-P) feat. Leo/need / Project SEKAI COLORFUL STAGE!
|
|
BGMOVIE:Teratera.mp4
|
|
TITLEJA:てらてら
|
|
SUBTITLEJA:和田たけあき (くらげP) feat. Leo/need 「プロジェクトセカイ カラフルステージ!」より
|
|
PREIMAGE:Teratera.png
|
|
BPM:190
|
|
WAVE:Teratera.ogg
|
|
OFFSET:-1.219
|
|
DEMOSTART:52.524
|
|
MAKER:Colin & Shoxk
|
|
|
|
|
|
COURSE:Edit
|
|
LEVEL:7
|
|
SCOREINIT:100
|
|
SCOREDIFF:140
|
|
NOTESDESIGNER4:Colin
|
|
|
|
#START
|
|
1000202120102010,
|
|
11221120,
|
|
1000202120102020,
|
|
11221120,
|
|
11221120,
|
|
10222120,
|
|
10221122,
|
|
1020202000002022,
|
|
1000202210102010,
|
|
0011202010102022,
|
|
1010202210102010,
|
|
0011201020102222,
|
|
1000202210102010,
|
|
0011202010102022,
|
|
1000202210102010,
|
|
01021211,
|
|
10211101,
|
|
01201120,
|
|
10201121,
|
|
01201120,
|
|
1011201010100020,
|
|
01201120,
|
|
10201102,
|
|
01211120,
|
|
10221121,
|
|
01211120,
|
|
11221212,
|
|
01201120,
|
|
11211102,
|
|
01201120,
|
|
1000202210102010,
|
|
0010201010222022,
|
|
1
|
|
#SCROLL 0.5
|
|
000100020001000,
|
|
12102012,
|
|
10102012,
|
|
10121212,
|
|
#SCROLL 1
|
|
1111,
|
|
11112222,
|
|
41141141,
|
|
14114142,
|
|
11110000,
|
|
#GOGOSTART
|
|
1000202210102030,
|
|
0030204030002022,
|
|
1000202210102030,
|
|
03243020,
|
|
1000202210102030,
|
|
0030204030002022,
|
|
1000202210102011,
|
|
1010202210202020,
|
|
#GOGOEND
|
|
1011
|
|
#GOGOSTART
|
|
202210102030,
|
|
0030204030002022,
|
|
1000202210102030,
|
|
0030003040102222,
|
|
1000202210102030,
|
|
0030204030102022,
|
|
1010201120102022,
|
|
1010201120202020,
|
|
10002222
|
|
#GOGOEND
|
|
10221011,
|
|
1011201000102020,
|
|
1010201000102022,
|
|
11210201,
|
|
2010222210002022,
|
|
1010102000102022,
|
|
1010201000102022,
|
|
1010102000102022,
|
|
1010202010001022,
|
|
1010201000102022,
|
|
1010201000102022,
|
|
1010201000102022,
|
|
1010202010002022,
|
|
1010102000102022,
|
|
11210110,
|
|
22120112,
|
|
0010202210001010,
|
|
11111111,
|
|
22224114,
|
|
11411411,
|
|
41442122,
|
|
0021200000000000,
|
|
1000202210102010,
|
|
11221120,
|
|
10221121,
|
|
1020101020102022,
|
|
10221120,
|
|
10221120,
|
|
10221120,
|
|
1020202010002022,
|
|
1011202210102030,
|
|
0030204030002022,
|
|
1000202210102030,
|
|
0030003040102222,
|
|
1000202210102030,
|
|
0030204030002022,
|
|
1010202210102012,
|
|
1010201210202020,
|
|
1000101020102022,
|
|
1010201000112020,
|
|
1010202210102022,
|
|
1010201000112010,
|
|
2010202210102022,
|
|
1010201000112020,
|
|
1010202210002022,
|
|
11230304,
|
|
3,
|
|
#END
|
|
|
|
COURSE:Oni
|
|
LEVEL:8
|
|
SCOREINIT:100
|
|
SCOREDIFF:125
|
|
NOTESDESIGNER3:Shoxk
|
|
|
|
#START
|
|
30220121,
|
|
01220120,
|
|
10220121,
|
|
01220221,
|
|
10220121,
|
|
01220121,
|
|
1000200220202010,
|
|
0030111110004022,
|
|
1000200210102210,
|
|
0011201022112010,
|
|
1000200210102210,
|
|
0022101020112022,
|
|
1000200210102210,
|
|
0011201022122010,
|
|
1000200210102210,
|
|
0010202020112022,
|
|
10201102,
|
|
0010202220102000,
|
|
1010222011102010,
|
|
0010201120102000,
|
|
1022202020100010,
|
|
0010201220112020,
|
|
1110202011101020,
|
|
0011201020112020,
|
|
1000202212101020,
|
|
0010201000102220,
|
|
1110202012102010,
|
|
0010201120102000,
|
|
1010202110102011,
|
|
1010202012102010,
|
|
1000201020102210,
|
|
2210102220222222,
|
|
#SCROLL 0.5
|
|
10102012,
|
|
12102012,
|
|
10102012,
|
|
02121222,
|
|
#SCROLL 1
|
|
10111111,
|
|
1010101010101111,
|
|
14414414,
|
|
41441414,
|
|
33330000,
|
|
#GOGOSTART
|
|
1000200210102210,
|
|
0011201120112010,
|
|
1000200210102210,
|
|
0012201220122210,
|
|
1000200210102010,
|
|
0011201020112010,
|
|
1010201210102012,
|
|
1010202211221120,
|
|
#GOGOEND
|
|
1111
|
|
#GOGOSTART
|
|
200210102210,
|
|
0011201220112010,
|
|
1000200210102210,
|
|
0010001020122212,
|
|
1000200210122210,
|
|
0010201220102010,
|
|
1010202110102021,
|
|
1110111011111110,
|
|
#MEASURE 2/4
|
|
00,
|
|
#MEASURE 4/4
|
|
#GOGOEND
|
|
1000200210102010,
|
|
0011201022101040,
|
|
0012201022121010,
|
|
0011201012221222,
|
|
1000200210102010,
|
|
0010201110102010,
|
|
1010200120101120,
|
|
1120112012221210,
|
|
1000200210102010,
|
|
0010201120102010,
|
|
1110201120111020,
|
|
0020112012221212,
|
|
1110200210102010,
|
|
0010201210102210,
|
|
01104114,
|
|
11141414,
|
|
10111111,
|
|
1010101011111110,
|
|
1044401044401044,
|
|
4010444010401040,
|
|
#MEASURE 6/4
|
|
333300000000,
|
|
#MEASURE 4/4
|
|
#SCROLL 0.5
|
|
30220121,
|
|
01220120,
|
|
10220121,
|
|
01220221,
|
|
10220121,
|
|
01220121,
|
|
10220122,
|
|
0030111110004000,
|
|
#SCROLL 1
|
|
1111
|
|
#GOGOSTART
|
|
200210102210,
|
|
0011201120112010,
|
|
1010200210102210,
|
|
0010001020102222,
|
|
1110200210122210,
|
|
0010202210112212,
|
|
1010202110102021,
|
|
1110111011111110,
|
|
#MEASURE 2/4
|
|
00,
|
|
#MEASURE 4/4
|
|
1000200210102010,
|
|
0011202020122010,
|
|
1000200210102010,
|
|
0011221022112020,
|
|
1000200210102010,
|
|
0011202020121010,
|
|
1000200212102210,
|
|
1202
|
|
#GOGOEND
|
|
3000,
|
|
,
|
|
#END
|
|
|
|
COURSE:Hard
|
|
LEVEL:7
|
|
BALLOON:5,5
|
|
SCOREINIT:100
|
|
SCOREDIFF:100
|
|
NOTESDESIGNER2:Shoxk
|
|
|
|
#START
|
|
10220121,
|
|
01220120,
|
|
10220121,
|
|
01210220,
|
|
10220121,
|
|
01220120,
|
|
10220121,
|
|
0010111010004000,
|
|
30201121,
|
|
01221121,
|
|
10201121,
|
|
02112121,
|
|
3000200110102010,
|
|
01221121,
|
|
1000200110102010,
|
|
02122121,
|
|
11201102,
|
|
01201120,
|
|
11201102,
|
|
01221120,
|
|
1110200010101020,
|
|
01201120,
|
|
1110200010101020,
|
|
01211220,
|
|
1110200110102010,
|
|
02011120,
|
|
1110200110101020,
|
|
0010202220102000,
|
|
1110200110101020,
|
|
0010201110102010,
|
|
00212121,
|
|
22122122,
|
|
#SCROLL 0.7
|
|
10102012,
|
|
12101210,
|
|
10102012,
|
|
02121111,
|
|
#SCROLL 1
|
|
10111111,
|
|
11111111,
|
|
32232232,
|
|
23223232,
|
|
33330000,
|
|
#GOGOSTART
|
|
1010400210102010,
|
|
0011101110111010,
|
|
1010400210102010,
|
|
0011102220111000,
|
|
1010200110102010,
|
|
01212112,
|
|
1110202011102010,
|
|
1110201010202000,
|
|
#GOGOEND
|
|
1110
|
|
#GOGOSTART
|
|
200210102010,
|
|
0011101110111010,
|
|
1010200210101020,
|
|
02122120,
|
|
1010200110102010,
|
|
01212111,
|
|
21122112,
|
|
2011102020111110,
|
|
#MEASURE 2/4
|
|
7008,
|
|
#MEASURE 4/4
|
|
#GOGOEND
|
|
1022202020202010,
|
|
11020112,
|
|
0010201020111010,
|
|
01112022,
|
|
10201112,
|
|
0010201110102010,
|
|
01212112,
|
|
12122122,
|
|
10201112,
|
|
0010202220102010,
|
|
01212112,
|
|
12122122,
|
|
1000200110102010,
|
|
0010220110102010,
|
|
01104114,
|
|
11141414,
|
|
10111111,
|
|
11111111,
|
|
14414414,
|
|
41441414,
|
|
#MEASURE 6/4
|
|
333300000000,
|
|
#MEASURE 4/4
|
|
#SCROLL 0.7
|
|
10220121,
|
|
01220120,
|
|
10220121,
|
|
02120220,
|
|
10220121,
|
|
01220120,
|
|
10220211,
|
|
#SCROLL 1
|
|
0010111010004000,
|
|
1110
|
|
#GOGOSTART
|
|
400110102010,
|
|
0011101110111010,
|
|
1110200110102010,
|
|
0011102220222000,
|
|
1010200210102010,
|
|
0010201020111010,
|
|
1110202011102020,
|
|
1110222010101110,
|
|
#MEASURE 2/4
|
|
7008,
|
|
#MEASURE 4/4
|
|
10221102,
|
|
01222121,
|
|
10221101,
|
|
0011102020111000,
|
|
1010200210101020,
|
|
0010202220102010,
|
|
1010200210102010,
|
|
0101
|
|
#GOGOEND
|
|
3000,
|
|
,
|
|
#END
|
|
|
|
COURSE:Normal
|
|
LEVEL:7
|
|
SCOREINIT:100
|
|
SCOREDIFF:150
|
|
NOTESDESIGNER1:Shoxk
|
|
|
|
#START
|
|
10220120,
|
|
10220120,
|
|
10220120,
|
|
10220120,
|
|
10220120,
|
|
10220120,
|
|
10220120,
|
|
23333040,
|
|
10202102,
|
|
01201120,
|
|
10201102,
|
|
01201220,
|
|
10202102,
|
|
01201120,
|
|
10201102,
|
|
01021120,
|
|
10201102,
|
|
01201020,
|
|
10201102,
|
|
01201020,
|
|
1112,
|
|
10101220,
|
|
10101102,
|
|
01220120,
|
|
10201102,
|
|
01201020,
|
|
10201102,
|
|
01201020,
|
|
1112,
|
|
10101220,
|
|
1222,
|
|
20120202,
|
|
1111,
|
|
10101011,
|
|
1111,
|
|
10101011,
|
|
1111,
|
|
11101110,
|
|
30030030,
|
|
03003030,
|
|
33330000,
|
|
#GOGOSTART
|
|
30201102,
|
|
01201020,
|
|
10201102,
|
|
01201220,
|
|
10201120,
|
|
11201120,
|
|
10221022,
|
|
10211022,
|
|
#GOGOEND
|
|
11
|
|
#GOGOSTART
|
|
#GOGOEND
|
|
201102,
|
|
01201020,
|
|
10201102,
|
|
01021020,
|
|
10221102,
|
|
01201220,
|
|
10111011,
|
|
11221120,
|
|
#MEASURE 2/4
|
|
00,
|
|
#MEASURE 4/4
|
|
10201201,
|
|
01201221,
|
|
01201201,
|
|
01012020,
|
|
10201102,
|
|
01210121,
|
|
01202012,
|
|
02022022,
|
|
10201102,
|
|
01210212,
|
|
01202012,
|
|
02022022,
|
|
10201120,
|
|
10210121,
|
|
01102112,
|
|
01120202,
|
|
1111,
|
|
10101110,
|
|
30030030,
|
|
03003030,
|
|
#MEASURE 6/4
|
|
333300000000,
|
|
#MEASURE 4/4
|
|
10220120,
|
|
10220120,
|
|
10220120,
|
|
10220120,
|
|
10220120,
|
|
10220120,
|
|
10220120,
|
|
23333040,
|
|
11
|
|
#GOGOSTART
|
|
201102,
|
|
01201020,
|
|
10201102,
|
|
01021020,
|
|
10221102,
|
|
01201220,
|
|
10111011,
|
|
11221120,
|
|
#MEASURE 2/4
|
|
00,
|
|
#MEASURE 4/4
|
|
10202102,
|
|
01201120,
|
|
10201102,
|
|
01201220,
|
|
10202102,
|
|
01201120,
|
|
10201102,
|
|
0202
|
|
#GOGOEND
|
|
3000,
|
|
,
|
|
#END
|
|
|
|
COURSE:Easy
|
|
LEVEL:4
|
|
BALLOON:4
|
|
SCOREINIT:100
|
|
SCOREDIFF:200
|
|
NOTESDESIGNER0:Shoxk
|
|
|
|
#START
|
|
1,
|
|
1,
|
|
1,
|
|
1,
|
|
1,
|
|
1,
|
|
1,
|
|
1010,
|
|
10001001,
|
|
,
|
|
10001001,
|
|
,
|
|
10001001,
|
|
,
|
|
10001001,
|
|
,
|
|
1010,
|
|
1,
|
|
1010,
|
|
1,
|
|
1010,
|
|
1,
|
|
1010,
|
|
1020,
|
|
1010,
|
|
1,
|
|
1010,
|
|
1,
|
|
1010,
|
|
1,
|
|
1010,
|
|
2020,
|
|
1110,
|
|
1110,
|
|
1110,
|
|
1110,
|
|
1111,
|
|
1111,
|
|
30030030,
|
|
03003030,
|
|
7008,
|
|
#GOGOSTART
|
|
1110,
|
|
1112,
|
|
1110,
|
|
1122,
|
|
1110,
|
|
1112,
|
|
1212,
|
|
1212,
|
|
#GOGOEND
|
|
1
|
|
#GOGOSTART
|
|
210,
|
|
1112,
|
|
1110,
|
|
1120,
|
|
1110,
|
|
1122,
|
|
1111,
|
|
1111,
|
|
#MEASURE 2/4
|
|
00,
|
|
#MEASURE 4/4
|
|
#GOGOEND
|
|
1010,
|
|
1010,
|
|
1010,
|
|
2020,
|
|
1110,
|
|
1110,
|
|
1110,
|
|
1122,
|
|
1220,
|
|
1220,
|
|
1220,
|
|
2211,
|
|
1110,
|
|
1110,
|
|
3030,
|
|
3030,
|
|
1111,
|
|
1111,
|
|
30030030,
|
|
03003030,
|
|
#MEASURE 6/4
|
|
600800000000,
|
|
#MEASURE 4/4
|
|
1,
|
|
1,
|
|
1,
|
|
1,
|
|
1,
|
|
1,
|
|
1,
|
|
1110,
|
|
1
|
|
#GOGOSTART
|
|
210,
|
|
1112,
|
|
1110,
|
|
1120,
|
|
1110,
|
|
1112,
|
|
1111,
|
|
1111,
|
|
#MEASURE 2/4
|
|
00,
|
|
#MEASURE 4/4
|
|
10001001,
|
|
,
|
|
10001001,
|
|
,
|
|
10001001,
|
|
,
|
|
10001001,
|
|
0100
|
|
#GOGOEND
|
|
3000,
|
|
,
|
|
#END
|