Files
Colins_Custom_Charts/03 VOCALOID/needLe/needLe.tja
T
2025-12-20 15:52:49 -05:00

456 lines
4.2 KiB
Plaintext

TITLE:needLe
SUBTITLE:--DECO*27 feat. Leo/need / Project SEKAI COLORFUL STAGE!
TITLEJA:needLe
SUBTITLEJA:DECO*27 feat. Leo/need 「プロジェクトセカイ カラフルステージ!」より
PREIMAGE:needLe.png
BGMOVIE:needLe.mp4
WAVE:needLe.ogg
BPM:190
OFFSET:-1.607
DEMOSTART:52.291
MAKER:Colin
COURSE:Easy
LEVEL:3
SCOREINIT:
SCOREDIFF:
NOTESDESIGNER0:Colin
#START
#MEASURE 3/4
000,
#MEASURE 4/4
3,
,
3,
,
3,
3,
2,
,
#GOGOSTART
20020020,
,
20020020,
,
5,
,
00000008,
,
#GOGOEND
1,
,
1,
,
1,
1,
1,
,
2020,
2,
2020,
2,
1010,
1,
1010,
1,
2,
2220,
2,
2220,
2022,
2022,
33033033,
,
#GOGOSTART
10101003,
,
20202004,
,
1010,
1011,
10001003,
,
20202004,
,
10101003,
,
20020020,
#GOGOEND
2,
#GOGOSTART
1110,
1110,
1110,
2220,
1010,
1,
20020020,
2,
1010,
1110,
1010,
1110,
2020,
202
#GOGOEND
20000,
,
,
#GOGOSTART
6,
,
8,
,
1010,
1110,
20020020,
02002020,
6,
,
8,
1010,
2020,
2020200
#GOGOEND
0,
,
00000044,
,
#MEASURE 1/4
0,
#END
COURSE:Normal
LEVEL:5
SCOREINIT:
SCOREDIFF:
NOTESDESIGNER1:Colin
#START
#MEASURE 3/4
000,
#MEASURE 4/4
30000004,
,
30000004,
,
3,
3,
2,
,
#GOGOSTART
20020022,
2220,
20020022,
2220,
5,
,
00000008,
,
#GOGOEND
1,
1,
1010,
1,
1,
1010,
1,
,
2020,
2220,
2020,
2,
1010,
1110,
1010,
1,
2022,
20222020,
2,
20222020,
2022,
2222,
33033033,
,
#GOGOSTART
10101003,
03001110,
20202004,
04000000,
1110,
10001011,
10101003,
0022,
20202004,
04001011,
10101003,
03000000,
20020022,
#GOGOEND
2,
#GOGOSTART
10101011,
1110,
10101022,
2220,
10001011,
1111,
20020020,
2222,
1010,
10111010,
1010,
10101022,
20002022,
202
#GOGOEND
20000,
,
,
#GOGOSTART
6,
,
8,
1110,
10001011,
1110,
20020022,
22002022,
6,
,
8,
1010,
20002022,
2020222
#GOGOEND
2,
,
00000044,
,
#MEASURE 1/4
0,
#END
COURSE:Hard
LEVEL:5
SCOREINIT:
SCOREDIFF:
NOTESDESIGNER2:Colin
#START
#MEASURE 3/4
000,
#MEASURE 4/4
30000004,
,
30000004,
,
30333333,
3,
20210122,
01012000,
#GOGOSTART
20210122,
01201120,
10210122,
01201220,
20222222,
12020202,
10212201,
01212120,
#GOGOEND
10020010,
00000111,
20220022,
00000002,
20210022,
02020001,
10220202,
,
10200021,
01200021,
10200021,
01201120,
11200021,
01200010,
11202122,
2022201020002000,
10112012,
01022010,
10112021,
01021110,
20112010,
20112010,
30440330,
,
#GOGOSTART
10201121,
01011120,
10201121,
0010002020010020,
1000001010020020,
20222221,
20212222,
00012111,
20201121,
01201120,
10201121,
0010200010010010,
10210120,
#GOGOEND
1,
#GOGOSTART
10201121,
01010120,
10201121,
01010120,
10201120,
10201120,
20120120,
2010200011102220,
10201121,
01010120,
10201012,
0010001020222000,
21212121,
222
#GOGOEND
22000,
5,
0008,
#GOGOSTART
6,
0008,
11210222,
01201220,
20210121,
01201210,
20120122,
11212120,
5,
0008,
10210121,
01201120,
10212012,
0120112
#GOGOEND
2,
,
00000033,
,
#MEASURE 1/4
0,
#END
COURSE:Oni
LEVEL:8
SCOREINIT:
SCOREDIFF:
NOTESDESIGNER3:Colin
#START
#MEASURE 3/4
012112,
#MEASURE 4/4
4000202010101120,
02022221,
2000200010101120,
0010201020102011,
20222222,
11200000,
22210102,
0020221120201000,
#GOGOSTART
41141141,
1040101040112010,
41141141,
1040101040112210,
40221222,
1022112010201211,
21414114,
0010401120112010,
#GOGOEND
10020010,
00000111,
20220022,
00000002,
21210022,
2220202020102011,
12102122,
200100000100200000101010200000200000100000000000,
11210121,
11221122,
11211121,
0010201110102020,
2010202000102011,
11220122,
1010201000102011,
200000200200200000100000200020002000100010001000,
10112101,
12012120,
10112022,
0020101120221111,
20101011,
2000100010102011,
24044343,
2211200000000000,
#GOGOSTART
3010201210102011,
1010201210102011,
1010201210102011,
1010201210102222,
1010201210102011,
1010201210102011,
1010201210102010,
1011201120112211,
1010201210102011,
1010201210102011,
1010201120102010,
0010201210102011,
2010102010102011,
#GOGOEND
2,
#GOGOSTART
3010120110102011,
1010201201112011,
1010120110102011,
1010201201112222,
1010201210102011,
1010201110202010,
41141144,
0010202212111111,
2010120110102011,
1010201201112011,
1010120110102011,
1010201120221111,
11212112,
122
#GOGOEND
10000,
,
00000130,
#GOGOSTART
3010201210102011,
1010201210102011,
1010201210102011,
1010201210102222,
1010201210102011,
1010201210102011,
21141144,
1011201120112222,
1010201201112011,
1010201201102011,
1010201201112011,
1010201120221111,
11212112,
00112010404040
#GOGOEND
40,
,
00000034,
,
#MEASURE 1/4
1111,
#END