generated from DragonRatTiger/Custom-Charts
514 lines
5.2 KiB
Plaintext
514 lines
5.2 KiB
Plaintext
TITLE:phony
|
|
SUBTITLE:--tsumiki feat. KAFU
|
|
TITLEJA:フォニイ
|
|
SUBTITLEJA:ツミキ feat. 可不
|
|
BGMOVIE:phony.mp4
|
|
PREIMAGE:phony.png
|
|
BPM:170
|
|
WAVE:phony.ogg
|
|
OFFSET:-0.371
|
|
DEMOSTART:61.7828
|
|
MAKER:Colin
|
|
|
|
COURSE:Oni
|
|
LEVEL:9
|
|
SCOREINIT:
|
|
SCOREDIFF:
|
|
NOTESDESIGNER3:Colin
|
|
|
|
#START
|
|
#MEASURE 3/4
|
|
002,
|
|
#MEASURE 4/4
|
|
1012102210012010,
|
|
1012201010002000,
|
|
1012202210102010,
|
|
1022102010221020,
|
|
1022101220012010,
|
|
1012101020002000,
|
|
1012102210202000,
|
|
3333,
|
|
3333,
|
|
3030303011111111,
|
|
100000200000202020202020200200100000200200200200,
|
|
#GOGOSTART
|
|
1020112010120120,
|
|
1022101210101120,
|
|
1020112010120120,
|
|
1120102011202022,
|
|
1020112010120120,
|
|
1011202210102022,
|
|
1020112010120120,
|
|
1122102010202020,
|
|
#GOGOEND
|
|
1012102210012010,
|
|
100000100200200000100000100000200000202020200000,
|
|
1012202210102010,
|
|
1022102010221020,
|
|
1022101220012010,
|
|
100000100200100000100000200000000000202020200000,
|
|
100000100200100000200200100000200000202020100200,
|
|
2010201010112020,
|
|
1012102210112010,
|
|
100000100200200000100000100000200000202020200000,
|
|
1012202210102010,
|
|
1022102010404020,
|
|
1022101220112010,
|
|
100000100200100000100000200000100000202020200000,
|
|
100000100200100000200200100000200000202020100000,
|
|
21211020,
|
|
4000201020212020,
|
|
11212021,
|
|
1000201010112020,
|
|
01211440,
|
|
2010202220212010,
|
|
200000100000200000100200100000200000202020200000,
|
|
10121014,
|
|
04334020,
|
|
#GOGOSTART
|
|
1020112010221020,
|
|
100000200000100100200200100000200000202020200000,
|
|
100000200000100100200000100000200000202020200000,
|
|
1020112210201120,
|
|
1010102011201010,
|
|
1011201040301120,
|
|
3020112010201120,
|
|
1110202210102010,
|
|
2011202010221010,
|
|
2022102010203040,
|
|
1110304011103040,
|
|
1110200010201020,
|
|
1011201010112010,
|
|
200000202020100000200200100000202020100100200000,
|
|
#GOGOEND
|
|
4444,
|
|
40404440,
|
|
#GOGOSTART
|
|
1120102210120120,
|
|
100000200000100000200000200000202020100000200200,
|
|
1010202210121020,
|
|
1120102210404022,
|
|
1011201010120120,
|
|
100200100200100222100200,
|
|
1020102211202010,
|
|
0344
|
|
#GOGOEND
|
|
4020,
|
|
20202222,
|
|
22202010,
|
|
2011201120112011,
|
|
2011201120102022,
|
|
1020101120112020,
|
|
1022102011201022,
|
|
1022102211201020,
|
|
1022102210222020,
|
|
2000202210112020,
|
|
1020112020121020,
|
|
1000102210121022,
|
|
1020112010202020,
|
|
4334,
|
|
#MEASURE 5/4
|
|
30101010111111111000,
|
|
#MEASURE 4/4
|
|
#GOGOSTART
|
|
4020112010221020,
|
|
100100200000100000200000202020200000100100200000,
|
|
100000200000100100200000202020200000100000200000,
|
|
1122102011201010,
|
|
1022102010221020,
|
|
1020403011203020,
|
|
1020112021201110,
|
|
2022101020104000,
|
|
2022102210102022,
|
|
1020102030401110,
|
|
3040111030401110,
|
|
2000102010201011,
|
|
200000100000100000100100200000100000200000202020,
|
|
100000200200100000202020100100200000100000200000,
|
|
100100200000100100200000202020200000100000200000,
|
|
#MEASURE 3/4
|
|
112210101010,
|
|
#MEASURE 4/4
|
|
#GOGOEND
|
|
1012102210010010,
|
|
0012101010001000,
|
|
2,
|
|
#END
|
|
|
|
COURSE:Hard
|
|
LEVEL:6
|
|
SCOREINIT:
|
|
SCOREDIFF:
|
|
NOTESDESIGNER2:Colin
|
|
|
|
#START
|
|
#MEASURE 3/4
|
|
002,
|
|
#MEASURE 4/4
|
|
10112022,
|
|
1222,
|
|
10201120,
|
|
10022212,
|
|
10221011,
|
|
2221,
|
|
10101110,
|
|
3333,
|
|
3333,
|
|
6,
|
|
8,
|
|
#GOGOSTART
|
|
1000102010111020,
|
|
12112012,
|
|
10101121,
|
|
0010202220222000,
|
|
12101212,
|
|
01112012,
|
|
10101212,
|
|
1011100010202000,
|
|
#GOGOEND
|
|
10101022,
|
|
10201210,
|
|
10112120,
|
|
11101212,
|
|
10112012,
|
|
10112010,
|
|
2000101010201011,
|
|
12221212,
|
|
11221012,
|
|
10201210,
|
|
11202120,
|
|
12102212,
|
|
10121012,
|
|
10102120,
|
|
12121020,
|
|
2112,
|
|
1000101010222020,
|
|
11211021,
|
|
10211021,
|
|
10211210,
|
|
2000202020222020,
|
|
12101120,
|
|
11201212,
|
|
01121058,
|
|
#GOGOSTART
|
|
10121211,
|
|
20102210,
|
|
12020500,
|
|
80112210,
|
|
12102222,
|
|
1115,
|
|
,
|
|
00082200,
|
|
58101212,
|
|
11201022,
|
|
10120205,
|
|
00801122,
|
|
10121022,
|
|
22101010,
|
|
#GOGOEND
|
|
5,
|
|
00000800,
|
|
#GOGOSTART
|
|
12121210,
|
|
1020100020222010,
|
|
21121012,
|
|
11211020,
|
|
12121021,
|
|
0020102020222020,
|
|
12112012,
|
|
0333
|
|
#GOGOEND
|
|
3000,
|
|
2222,
|
|
2222,
|
|
2222,
|
|
2222,
|
|
2222,
|
|
2222,
|
|
2222,
|
|
2222,
|
|
1111,
|
|
1111,
|
|
1111,
|
|
1111,
|
|
1111,
|
|
#MEASURE 5/4
|
|
5000080000,
|
|
#MEASURE 4/4
|
|
#GOGOSTART
|
|
10121211,
|
|
20102210,
|
|
12020500,
|
|
80112210,
|
|
12102222,
|
|
1115,
|
|
,
|
|
00082258,
|
|
10121211,
|
|
20102210,
|
|
12020500,
|
|
80112210,
|
|
12102222,
|
|
1115,
|
|
,
|
|
#MEASURE 3/4
|
|
000822,
|
|
#MEASURE 4/4
|
|
#GOGOEND
|
|
1,
|
|
0002,
|
|
2,
|
|
#END
|
|
|
|
COURSE:Normal
|
|
LEVEL:4
|
|
BALLOON:8
|
|
SCOREINIT:
|
|
SCOREDIFF:
|
|
NOTESDESIGNER1:Colin
|
|
|
|
#START
|
|
#MEASURE 3/4
|
|
000,
|
|
#MEASURE 4/4
|
|
1010,
|
|
0101,
|
|
1110,
|
|
0111,
|
|
0111,
|
|
0022,
|
|
2111,
|
|
5,
|
|
,
|
|
8600,
|
|
8,
|
|
#GOGOSTART
|
|
1110,
|
|
1110,
|
|
1110,
|
|
1110,
|
|
1110,
|
|
1110,
|
|
1110,
|
|
,
|
|
#GOGOEND
|
|
2,
|
|
0200,
|
|
,
|
|
,
|
|
2,
|
|
0222,
|
|
2,
|
|
1111,
|
|
1110,
|
|
0110,
|
|
1011,
|
|
1011,
|
|
1010,
|
|
2110,
|
|
1110,
|
|
1102,
|
|
5,
|
|
0812,
|
|
1125,
|
|
0008,
|
|
2220,
|
|
2220,
|
|
1115,
|
|
0008,
|
|
#GOGOSTART
|
|
3332,
|
|
2211,
|
|
1500,
|
|
0822,
|
|
5,
|
|
,
|
|
,
|
|
0008,
|
|
3332,
|
|
2211,
|
|
1500,
|
|
0822,
|
|
5,
|
|
,
|
|
#GOGOEND
|
|
0,
|
|
0008,
|
|
#GOGOSTART
|
|
7,
|
|
,
|
|
8222,
|
|
0121,
|
|
1011,
|
|
1100,
|
|
1210,
|
|
60
|
|
#GOGOEND
|
|
80,
|
|
2020,
|
|
2020,
|
|
2020,
|
|
2020,
|
|
2020,
|
|
2020,
|
|
2020,
|
|
2020,
|
|
1010,
|
|
1010,
|
|
1010,
|
|
1010,
|
|
1010,
|
|
#MEASURE 5/4
|
|
10100,
|
|
#MEASURE 4/4
|
|
#GOGOSTART
|
|
3332,
|
|
2211,
|
|
1500,
|
|
0822,
|
|
5,
|
|
,
|
|
,
|
|
0008,
|
|
3332,
|
|
2211,
|
|
1500,
|
|
0822,
|
|
5,
|
|
,
|
|
,
|
|
#MEASURE 3/4
|
|
000,
|
|
#MEASURE 4/4
|
|
#GOGOEND
|
|
8,
|
|
,
|
|
2,
|
|
#END
|
|
|
|
COURSE:Easy
|
|
LEVEL:3
|
|
BALLOON:4
|
|
SCOREINIT:
|
|
SCOREDIFF:
|
|
NOTESDESIGNER0:Colin
|
|
|
|
#START
|
|
#MEASURE 3/4
|
|
000,
|
|
#MEASURE 4/4
|
|
1010,
|
|
0100,
|
|
0100,
|
|
0100,
|
|
0100,
|
|
,
|
|
0100,
|
|
5,
|
|
,
|
|
8600,
|
|
8,
|
|
#GOGOSTART
|
|
1010,
|
|
1010,
|
|
1010,
|
|
1010,
|
|
1010,
|
|
1010,
|
|
1010,
|
|
,
|
|
#GOGOEND
|
|
2,
|
|
0200,
|
|
,
|
|
,
|
|
2,
|
|
0202,
|
|
,
|
|
1010,
|
|
1010,
|
|
0100,
|
|
1010,
|
|
1010,
|
|
1010,
|
|
2010,
|
|
1010,
|
|
0102,
|
|
5,
|
|
0810,
|
|
1025,
|
|
0008,
|
|
2020,
|
|
2020,
|
|
1015,
|
|
0008,
|
|
#GOGOSTART
|
|
3030,
|
|
0010,
|
|
1500,
|
|
0822,
|
|
5,
|
|
,
|
|
,
|
|
0008,
|
|
3030,
|
|
0010,
|
|
1500,
|
|
0800,
|
|
5,
|
|
,
|
|
#GOGOEND
|
|
0,
|
|
0008,
|
|
#GOGOSTART
|
|
7,
|
|
,
|
|
8202,
|
|
0101,
|
|
0010,
|
|
1,
|
|
1010,
|
|
60
|
|
#GOGOEND
|
|
80,
|
|
2,
|
|
2,
|
|
2,
|
|
2,
|
|
2,
|
|
2,
|
|
2,
|
|
2,
|
|
1,
|
|
1,
|
|
1,
|
|
1,
|
|
1,
|
|
#MEASURE 5/4
|
|
10000,
|
|
#MEASURE 4/4
|
|
#GOGOSTART
|
|
3330,
|
|
0011,
|
|
1500,
|
|
0800,
|
|
5,
|
|
,
|
|
,
|
|
0008,
|
|
3330,
|
|
0011,
|
|
1500,
|
|
0800,
|
|
5,
|
|
,
|
|
,
|
|
#MEASURE 3/4
|
|
000,
|
|
#MEASURE 4/4
|
|
#GOGOEND
|
|
8,
|
|
,
|
|
2,
|
|
#END
|