Files
Colins_Custom_Charts/04 Variety/Origin/Origin.tja
T
2025-06-11 19:53:16 -04:00

735 lines
6.4 KiB
Plaintext

// PeepoDrumKit 2023/10/28
TITLE:Origin
TITLEJA:Origin
SUBTITLE:--PSYQUI
SUBTITLEJA:PSYQUI
BPM:160
WAVE:Origin.ogg
PREIMAGE:Origin.jpg
OFFSET:-0.067
DEMOSTART:48.067
MAKER:Colin & Carmichael
COURSE:Easy
LEVEL:2
SCOREINIT:
SCOREDIFF:
NOTESDESIGNER0:Colin
#START
2,
2,
2,
2,
2,
2,
2,
2,
3,
1,
1,
1020,
1,
1,
1111,
1,
3003,
,
3003,
,
3003,
,
3003,
,
3030,
3,
3030,
3,
3030,
3030,
3333,
,
#GOGOSTART
3010,
1110,
2020,
2220,
1010,
1110,
2020,
2220,
1010,
1110,
2020,
2220,
1010,
1110,
2020,
222
#GOGOEND
0,
1010,
1,
2020,
2,
1010,
1,
2020,
2,
1010,
1110,
1,
1,
2020,
2220,
2020,
2,
#GOGOSTART
1010,
1110,
1,
1,
2022,
2020,
2,
2,
2022,
2020,
2,
2,
2020,
2,
2222,
200
#GOGOEND
0,
4,
2,
2,
2,
,
#END
COURSE:Normal
LEVEL:4
SCOREINIT:
SCOREDIFF:
NOTESDESIGNER1:Colin
#START
2,
2020,
2,
2,
2,
2020,
2,
2,
3011,
1010,
1,
1020,
1011,
1010,
10101110,
1,
3013,
0001,
3013,
,
3013,
0001,
3003,
0001,
3030,
3030,
3030,
3030,
3333,
3333,
33333333,
,
#GOGOSTART
30001011,
1110,
20002022,
2220,
10001011,
1110,
20002022,
2220,
10001011,
1110,
20002022,
2220,
10001011,
1110,
20002022,
222
#GOGOEND
0,
10011000,
1110,
20022000,
2220,
10011000,
1110,
20022000,
2220,
10011000,
1110,
1011,
1,
20002022,
2220,
2020,
2220,
#GOGOSTART
10001011,
1110,
10001011,
1110,
20002022,
2220,
2020,
2220,
20002022,
2220,
20002022,
2220,
2222,
2222,
22222222,
200
#GOGOEND
0,
4,
2020,
2,
2020,
,
#END
COURSE:Hard
LEVEL:5
SCOREINIT:
SCOREDIFF:
NOTESDESIGNER2:Colin
#START
3022,
2022,
20022020,
2020,
1020,
1020,
1020,
1,
11012000,
00012000,
11012000,
00012000,
12201220,
12201220,
2020202220202011,
1,
30222030,
01102000,
30111030,
01104030,
30111030,
01104030,
30111030,
11104030,
30223022,
30223022,
30223022,
30223022,
3333,
3333,
33333333,
,
#GOGOSTART
22212222,
22112011,
2000101020111010,
10221020,
22212222,
22112011,
2000101020111010,
10221020,
22212222,
22112011,
2000101020111010,
10221020,
22212222,
22112011,
2000101020111010,
102210
#GOGOEND
20,
1010200110102000,
1000200110102000,
1010200110102000,
1000200110102000,
1010200110102000,
1000200110102000,
1010200110102000,
1000200110102000,
1010220010102010,
10201120,
1010220010102010,
10201120,
1010220010102010,
10201120,
1010220010102010,
1,
#GOGOSTART
20121212,
1000102011001110,
10121212,
1000102011001110,
20121212,
1000102011001110,
10121212,
1000102011001110,
20121212,
1000102011001110,
20121212,
1000102011001110,
4444,
4444,
44444444,
600
#GOGOEND
0,
8,
2022,
2022,
2020,
2,
#END
COURSE:Oni
LEVEL:9
SCOREINIT:
SCOREDIFF:
NOTESDESIGNER3:Colin & Carmichael
#START
#LYRIC |
3
#LYRIC C|
0
#LYRIC Co|
0
#LYRIC Col|
0
#LYRIC Coli|
0
#LYRIC Colin|
0
#LYRIC Colin|
0010
#LYRIC Colin
0020
#LYRIC Colin|
00,
200
#LYRIC Coli
0
#LYRIC Col
1
#LYRIC Co
0
#LYRIC C
0
#LYRIC
020002000,
200000000222100000100000,
1000100020000002,
1020,
1020,
1020,
1020,
#LYRIC |
1
#LYRIC C|
0
#LYRIC Ca|
1
#LYRIC Car|
0
#LYRIC Carm|
0
#LYRIC Carmi|
0
#LYRIC Carmic|
1
#LYRIC Carmich|
0
#LYRIC Carmicha|
2
#LYRIC Carmichae|
0
#LYRIC Carmichael|
0000
#LYRIC Carmichael
00,
0000001
#LYRIC Carmichael|
0
#LYRIC Carmichae|
2
#LYRIC Carmicha|
0
#LYRIC Carmich|
0
#LYRIC Carmic|
0
#LYRIC Carmi|
0
#LYRIC Carm|
0
#LYRIC Car|
0
#LYRIC Ca|
0,
#LYRIC C|
2
#LYRIC |
0
#LYRIC
10001020000000,
00012000,
22222222,
22222222,
2222222222222220,
300011101010200010002000,
32224030,
00300412,
30002130,
00301210,
3043,
00302312,
10002130,
00302122,
4040,
4040,
4040,
4040,
#SCROLL 1.5
4444,
4444,
#SCROLL 2
44444444,
#SCROLL 2.5
4444444444444000,
#GOGOSTART
#SCROLL 1
#LYRIC |
400
#LYRIC C|
000
#LYRIC Co|
202
#LYRIC Col|
020
#LYRIC Coli|
100
#LYRIC Colin|
000
#LYRIC Colin|
100000200000
#LYRIC Colin
202020100000
#LYRIC Colin|
100000,
400000202
#LYRIC Coli
020
#LYRIC Col
100
#LYRIC Co
000
#LYRIC C
100
#LYRIC
000200000100200100000200000,
400222100100200222100100,
400000202020100000101010200000100200100000200000,
400222100100200222100100,
400000202020100000100000200000100200100000200000,
400222100100200222100100,
400000101010200000101010200000100200100000200000,
#LYRIC |
400
#LYRIC C|
000
#LYRIC Ca|
101
#LYRIC Car|
010
#LYRIC Carm|
200
#LYRIC Carmi|
000
#LYRIC Carmic|
100
#LYRIC Carmich|
000
#LYRIC Carmicha|
200
#LYRIC Carmichae|
000
#LYRIC Carmichael|
202020100000
#LYRIC Carmichael
100000,
200000202020100000100
#LYRIC Carmichael|
000
#LYRIC Carmichae|
200
#LYRIC Carmicha|
000
#LYRIC Carmich|
200
#LYRIC Carmic|
200
#LYRIC Carmi|
100
#LYRIC Carm|
000
#LYRIC Car|
100
#LYRIC Ca|
000,
#LYRIC C|
200
#LYRIC |
000
#LYRIC
202020100000100000200000202020100000100000,
100200200222100100200111,
200222100100200222100100,
100000202020100000100000200000200200100000100000,
200222100100200111200100,
100000200000200000202020100000100100
#GOGOEND
200000100000,
#LYRIC |
3
#LYRIC C|
0
#LYRIC Co|
1
#LYRIC Col|
1
#LYRIC Coli|
0
#LYRIC Colin|
1
#LYRIC Colin|
2020
#LYRIC Colin
2101
#LYRIC Colin|
21,
101
#LYRIC Coli
2
#LYRIC Col
0
#LYRIC Co
1
#LYRIC C
1
#LYRIC
120120211,
1012011110120120,
1012012110121120,
1021012110221120,
1021012212221222,
1222112011221222,
100200000100100100200200100000202020100000200000,
#LYRIC |
2
#LYRIC C|
0
#LYRIC Ca|
2
#LYRIC Car|
1
#LYRIC Carm|
2
#LYRIC Carmi|
0
#LYRIC Carmic|
1
#LYRIC Carmich|
0
#LYRIC Carmicha|
2
#LYRIC Carmichae|
0
#LYRIC Carmichael|
2120
#LYRIC Carmichael
10,
2012101
#LYRIC Carmichael|
0
#LYRIC Carmichae|
2
#LYRIC Carmicha|
0
#LYRIC Carmich|
2
#LYRIC Carmic|
2
#LYRIC Carmi|
2
#LYRIC Carm|
0
#LYRIC Car|
2
#LYRIC Ca|
2,
#LYRIC C|
1
#LYRIC |
1
#LYRIC
11211121122220,
1111211121122220,
2021201020212010,
2021201020101010,
2011201020212010,
1011212211221120,
#GOGOSTART
#LYRIC |
3
#LYRIC C|
0
#LYRIC Co|
2
#LYRIC Col|
1
#LYRIC Coli|
0
#LYRIC Colin|
1
#LYRIC Colin|
2212
#LYRIC Colin
2011
#LYRIC Colin|
22,
101
#LYRIC Coli
2
#LYRIC Col
1
#LYRIC Co
1
#LYRIC C
2
#LYRIC
212111122,
1012012211201120,
1012012112210120,
1022012211201120,
1012012110221122,
1012012211201120,
1012012012211120,
#LYRIC |
3
#LYRIC C|
0
#LYRIC Ca|
1
#LYRIC Car|
1
#LYRIC Carm|
2
#LYRIC Carmi|
1
#LYRIC Carmic|
1
#LYRIC Carmich|
1
#LYRIC Carmicha|
2
#LYRIC Carmichae|
2
#LYRIC Carmichael|
2122
#LYRIC Carmichael
11,
2010112
#LYRIC Carmichael|
1
#LYRIC Carmichae|
2
#LYRIC Carmicha|
1
#LYRIC Carmich|
1
#LYRIC Carmic|
2
#LYRIC Carmi|
2
#LYRIC Carm|
1
#LYRIC Car|
1
#LYRIC Ca|
1,
#LYRIC C|
2
#LYRIC |
0
#LYRIC
11112221122011,
2111221121111122,
2222,
2222,
2222,
222222222222
#GOGOEND
2010,
#LYRIC |
3
#LYRIC C|
0
#LYRIC Co|
0
#LYRIC Col|
0
#LYRIC Coli|
0
#LYRIC Colin|
0
#LYRIC Colin|
0010
#LYRIC Colin
0020
#LYRIC Colin|
00,
200
#LYRIC Coli
0
#LYRIC Col
1
#LYRIC Co
0
#LYRIC C
0
#LYRIC
020002000,
200000000222100000100000,
1000100020000002,
1,
#END